<?xml version="1.0" standalone="no"?>
<!DOCTYPE svg PUBLIC "-//W3C//DTD SVG 1.1//EN" "http://www.w3.org/Graphics/SVG/1.1/DTD/svg11.dtd" >
<svg xmlns="http://www.w3.org/2000/svg" xmlns:xlink="http://www.w3.org/1999/xlink" version="1.1">
<metadata>
Created by FontForge 20170731 at Fri Jun  8 02:15:02 2018
 By Aleksey,,,
Copyright (c) 2018 by Jorge Cisterna. All rights reserved.
</metadata>
<defs>
<font id="RecoletaAlt-Bold" horiz-adv-x="600" >
  <font-face 
    font-family="Recoleta Alt Bold"
    font-weight="700"
    font-stretch="normal"
    units-per-em="1000"
    panose-1="0 0 8 0 0 0 0 0 0 0"
    ascent="800"
    descent="-200"
    x-height="480"
    cap-height="710"
    bbox="-717 -334.682 1351 966.653"
    underline-thickness="50"
    underline-position="-250"
    unicode-range="U+0020-FB02"
  />
<missing-glyph horiz-adv-x="530" 
d="M50 730h430v-730h-430v730zM115 695l150 -287l150 287h-300zM243 365l-153 292v-584zM288 365l152 -292v584zM265 322l-150 -287h300z" />
    <glyph glyph-name="fi" unicode="fi" horiz-adv-x="722" 
d="M372 480q10 0 16.5 -6.5t6.5 -16.5v-22q0 -10 -6.5 -16.5t-16.5 -6.5h-110v-302q0 -26 27 -50.5t27 -36.5v-4q0 -19 -23 -19h-219q-23 0 -23 19v4q0 12 20 36.5t20 50.5v302h-65q-10 0 -16.5 6.5t-6.5 16.5v22q0 10 6.5 16.5t16.5 6.5h65v40q0 93 74.5 152t199.5 59
q110 0 173 -42.5t63 -104.5q0 -26 -19.5 -44.5t-48.5 -18.5q-33 0 -56.5 16.5t-36.5 40t-24.5 47t-29 40t-41.5 16.5q-49 0 -70.5 -56t-12.5 -133v-12h110zM660 110q0 -25 22.5 -50t22.5 -37v-4q0 -19 -24 -19h-217q-24 0 -24 19v4q0 12 20 37t20 50v190q0 26 -20 50.5
t-20 33.5v4q0 12 23 23l152 74q21 9 33 2t12 -23v-354z" />
    <glyph glyph-name="fl" unicode="fl" horiz-adv-x="723" 
d="M660 109q0 -25 22.5 -49.5t22.5 -36.5v-4q0 -19 -24 -19h-217q-24 0 -24 19v4q0 12 20 36.5t20 49.5v426q-20 13 -37 39t-26.5 49t-28 40.5t-43.5 17.5q-49 1 -70.5 -55.5t-12.5 -133.5v-12h110q10 0 16.5 -6.5t6.5 -16.5v-22q0 -10 -6.5 -16.5t-16.5 -6.5h-110v-302
q0 -26 27 -50.5t27 -36.5v-4q0 -19 -23 -19h-219q-23 0 -23 19v4q0 12 20 36.5t20 50.5v302h-65q-10 0 -16.5 6.5t-6.5 16.5v22q0 10 6.5 16.5t16.5 6.5h65v40q0 93 74.5 152t199.5 59q90 0 149 -28l101 49q21 9 33 1.5t12 -22.5v-622z" />
    <glyph glyph-name=".notdef" horiz-adv-x="530" 
d="M50 730h430v-730h-430v730zM115 695l150 -287l150 287h-300zM243 365l-153 292v-584zM288 365l152 -292v584zM265 322l-150 -287h300z" />
    <glyph glyph-name=".null" horiz-adv-x="0" 
 />
    <glyph glyph-name="nonmarkingreturn" horiz-adv-x="333" 
 />
    <glyph glyph-name="space" unicode=" " horiz-adv-x="196" 
 />
    <glyph glyph-name="exclam" unicode="!" horiz-adv-x="280" 
d="M105 244q-25 106 -39.5 225t-15.5 188q0 23 18.5 39.5t45 20.5t53 0.5t45 -19.5t18.5 -40q0 -78 -13.5 -193.5t-41.5 -220.5q-5 -19 -35 -18.5t-35 18.5zM140 -13q-46 0 -75.5 24t-29.5 70t29.5 70.5t75.5 24.5t76 -24.5t30 -70.5t-30 -70t-76 -24z" />
    <glyph glyph-name="quotedbl" unicode="&#x22;" horiz-adv-x="464" 
d="M70 415q-41 137 -42 218q0 43 25.5 65.5t62.5 22.5q36 0 62 -22.5t26 -65.5q-1 -78 -43 -218q-11 -32 -46.5 -30.5t-44.5 30.5zM303 415q-41 137 -42 218q0 43 25.5 65.5t61.5 22.5q37 0 63 -22.5t26 -65.5q-1 -41 -16 -110t-28 -108q-11 -32 -46 -30.5t-44 30.5z" />
    <glyph glyph-name="numbersign" unicode="#" horiz-adv-x="687" 
d="M635 480q23 0 23 -17v-52q0 -17 -23 -17h-98l-27 -100h96q23 0 23 -17v-53q0 -16 -23 -16h-118l-51 -193q-4 -15 -26 -15h-68q-22 0 -16 26l49 182h-136l-51 -193q-4 -15 -26 -15h-68q-22 0 -16 26l49 182h-76q-23 0 -23 16v53q0 7 6.5 12t16.5 5h99l26 100h-96
q-23 0 -23 17v52q0 17 23 17h119l49 182q4 16 20 16h72q22 0 15 -27l-45 -171h137l49 182q4 16 20 16h72q22 0 15 -27l-45 -171h76zM399 294l26 100h-136l-27 -100h137z" />
    <glyph glyph-name="dollar" unicode="$" horiz-adv-x="579" 
d="M549 207q0 -91 -63.5 -149.5t-174.5 -65.5v-95q0 -25 -19 -25h-28q-19 0 -19 25v96q-97 7 -155 49.5t-58 96.5q0 42 22.5 64t54.5 22q34 0 59 -17.5t39.5 -43t26.5 -51t27.5 -43t34.5 -17.5q64 0 64 90q0 35 -18 61t-46.5 42.5t-62.5 31.5t-68.5 33t-63 41t-46.5 61
t-18 88q0 84 60 141t157 64v55q0 24 19 24h29q19 0 19 -24v-56q96 -7 152.5 -47t56.5 -93q0 -39 -21.5 -62t-58.5 -23q-36 0 -60 27t-33.5 59.5t-26.5 59.5t-41 27q-27 0 -41.5 -22t-14.5 -61q0 -41 17.5 -70.5t45.5 -46t61.5 -30t67 -29.5t61.5 -37t45.5 -59t17.5 -91z" />
    <glyph glyph-name="percent" unicode="%" horiz-adv-x="899" 
d="M214 341q-79 0 -134.5 52.5t-55.5 135.5q0 85 52.5 138t136.5 53q79 0 135 -54.5t56 -137.5t-56 -135t-134 -52zM236 0q-13 0 -17 8t2 18l350 669q9 15 20 15h64q12 0 16.5 -8t-1.5 -18l-348 -669q-7 -15 -25 -15h-61zM231 384q44 0 44 84q0 70 -25 139t-62 69
q-44 0 -44 -90q0 -73 25 -137.5t62 -64.5zM685 -10q-79 0 -134.5 52.5t-55.5 135.5q0 85 52.5 138t136.5 53q80 0 135.5 -54t55.5 -138q0 -83 -56 -135t-134 -52zM702 33q44 0 44 84q0 70 -25 139t-62 69q-44 0 -44 -89q0 -74 25 -138.5t62 -64.5z" />
    <glyph glyph-name="ampersand" unicode="&#x26;" horiz-adv-x="762" 
d="M734 96q28 0 28 -21v-7q0 -26 -41 -52t-90 -26q-50 0 -80.5 14.5t-59.5 45.5q-83 -60 -186 -60q-142 0 -208.5 51t-66.5 137q0 116 158 204q-40 43 -60.5 79.5t-20.5 79.5q0 77 60.5 127.5t179.5 51.5q88 1 157 -38.5t69 -103.5q0 -26 -19.5 -43.5t-53.5 -17.5
q-39 0 -63 22.5t-32.5 49t-27 49t-47.5 22.5q-27 0 -42 -20.5t-15 -50.5q0 -14 2.5 -27t5 -23t10 -22.5t11.5 -19t16 -20l16 -18t19 -20t19 -19.5l158 -166q24 66 24 111q0 25 -22 49.5t-22 36.5v4q0 19 24 19h137q24 0 24 -19v-4q0 -12 -22.5 -36.5t-22.5 -49.5
q0 -94 -49 -186l8 -9q70 -74 99 -74h26zM218 171q0 -48 31.5 -81.5t81.5 -33.5q55 0 108 51l-182 201q-39 -59 -39 -137z" />
    <glyph glyph-name="quotesingle" unicode="'" horiz-adv-x="232" 
d="M70 415q-41 137 -42 218q0 43 25.5 65.5t62.5 22.5q36 0 62 -22.5t26 -65.5q-1 -78 -43 -218q-11 -32 -46.5 -30.5t-44.5 30.5z" />
    <glyph glyph-name="parenleft" unicode="(" horiz-adv-x="281" 
d="M201 -109q-73 59 -122.5 174.5t-49.5 271.5t49.5 271.5t122.5 174.5q21 17 41.5 5.5t7.5 -37.5q-32 -60 -52 -173t-20 -241t20 -241t52 -173q13 -26 -7.5 -37.5t-41.5 5.5z" />
    <glyph glyph-name="parenright" unicode=")" horiz-adv-x="281" 
d="M80 -109q-21 -18 -41.5 -6t-7.5 38q32 60 52 173t20 241t-20 241t-52 173q-13 26 7.5 37.5t41.5 -5.5q74 -59 123 -174t49 -272q0 -155 -50 -270t-122 -176z" />
    <glyph glyph-name="asterisk" unicode="*" horiz-adv-x="410" 
d="M170 430q-16 -41 -56 -31q-30 8 -39.5 34t16.5 47l82 68l-94 4q-44 1 -50 37q-4 30 20 49q22 18 49 2l86 -49l-26 92q-9 30 6 47.5t46 18.5q30 2 44 -15.5t3 -50.5l-28 -92l85 49q36 22 57 -9q18 -28 4 -56q-12 -22 -41 -23l-91 -4l81 -71q30 -25 5 -55q-21 -27 -51 -22
q-25 3 -36 32l-34 92z" />
    <glyph glyph-name="plus" unicode="+" 
d="M263 61q-17 0 -17 26v152h-152q-24 0 -26 18l1 72q0 18 25 18h152v152q0 26 17 26h73q18 0 18 -26v-152l153 1q11 0 18.5 -5t6.5 -13v-73q0 -17 -25 -17h-152v-153q0 -26 -18 -26h-74z" />
    <glyph glyph-name="comma" unicode="," horiz-adv-x="270" 
d="M90 -152q-17 -10 -31 5.5t0 28.5q31 32 43 49t14 37q2 22 -13 22q-30 0 -51 26.5t-21 66.5q0 48 27.5 77.5t73.5 29.5q44 0 75.5 -33t31.5 -88q0 -130 -149 -221z" />
    <glyph glyph-name="hyphen" unicode="-" horiz-adv-x="461" 
d="M69 291q-22 0 -22 25v38q0 25 22 25h323q23 0 23 -25v-38q0 -25 -23 -25h-323z" />
    <glyph glyph-name="period" unicode="." horiz-adv-x="271" 
d="M136 -10q-46 0 -76 24t-30 71q0 46 30 70t76 24t75.5 -24t29.5 -70t-29.5 -70.5t-75.5 -24.5z" />
    <glyph glyph-name="slash" unicode="/" horiz-adv-x="389" 
d="M37 -93q-24 0 -15 27l246 844q4 15 26 15h57q24 0 15 -26l-245 -844q-4 -16 -25 -16h-59z" />
    <glyph glyph-name="zero" unicode="0" horiz-adv-x="709" 
d="M355 -10q-137 0 -230 99.5t-93 262.5q0 167 87.5 267.5t234.5 100.5q138 0 231 -103t93 -266t-94 -262t-229 -99zM382 57q46 0 72.5 53.5t26.5 158.5q0 89 -17.5 175t-53 146t-81.5 60q-48 0 -74.5 -58.5t-26.5 -172.5q0 -90 18 -172t54 -136t82 -54z" />
    <glyph glyph-name="one" unicode="1" horiz-adv-x="367" 
d="M65 0q-24 0 -24 19v4q0 11 14.5 25t29 32t14.5 39v398q0 22 -11 34.5t-24.5 16.5t-24.5 11.5t-11 19.5v5q0 18 30 32l158 68q38 14 60.5 3.5t22.5 -32.5q0 -13 -11 -37t-11 -56v-463q0 -21 15.5 -39t30.5 -32t15 -25v-4q0 -19 -24 -19h-249z" />
    <glyph glyph-name="two" unicode="2" horiz-adv-x="622" 
d="M577 204q11 0 16.5 -7t3.5 -17l-32 -156q-6 -24 -25 -24h-484q-11 0 -19 7t-8 17v13q0 59 35.5 116.5t86 104.5t100.5 91.5t85.5 94t35.5 96.5q0 50 -22 80.5t-53 30.5q-22 0 -37 -20t-25 -48t-22 -56t-35 -48t-56 -20q-38 0 -63 22.5t-25 61.5q0 74 77.5 125.5
t188.5 51.5q123 0 194.5 -48t71.5 -149q0 -56 -33 -104.5t-82.5 -83.5t-101 -66t-95.5 -68t-58 -74h257q26 0 45 12t27.5 26.5t18.5 26.5t20 12h13z" />
    <glyph glyph-name="three" unicode="3" horiz-adv-x="597" 
d="M352 425q99 -4 157 -61.5t58 -148.5q0 -93 -76.5 -159t-197.5 -66q-131 0 -199.5 44t-68.5 104q0 40 20.5 64.5t57.5 24.5q35 0 60 -26.5t37.5 -57.5t35 -57.5t52.5 -26.5q39 0 63.5 39.5t24.5 96.5q0 61 -26 97t-72 36h-20q-24 0 -32.5 20.5t6.5 41.5l124 165h-278
q-15 0 -24.5 9t-9.5 24v91q0 31 33 31h441q12 0 19 -6.5t7 -16.5v-16q0 -18 -26 -49z" />
    <glyph glyph-name="four" unicode="4" horiz-adv-x="593" 
d="M550 243q21 0 21 -20v-34q0 -20 -21 -20h-59v-59q0 -26 22.5 -50.5t22.5 -36.5v-4q0 -19 -23 -19h-220q-24 0 -24 19v4q0 12 20.5 36.5t20.5 50.5v59h-263q-46 0 -46 37v5q0 32 17 59l259 396q28 44 77 44h111q26 0 26 -26v-441h59zM96 243h214v328z" />
    <glyph glyph-name="five" unicode="5" horiz-adv-x="590" 
d="M319 450q97 0 171 -57.5t74 -158.5q0 -107 -78.5 -175.5t-203.5 -68.5q-120 0 -188 41t-68 109q0 43 25.5 63.5t61.5 20.5q26 0 44.5 -17t29.5 -41t22.5 -48t30 -41t43.5 -17q42 0 68.5 37t26.5 113q0 170 -116 170q-52 0 -106 -43q-27 -22 -61.5 -9t-30.5 44l37 316
q3 22 27 22h385q25 0 25 -25v-93q0 -25 -25 -25h-340l-24 -176q74 59 170 59z" />
    <glyph glyph-name="six" unicode="6" horiz-adv-x="615" 
d="M345 467q60 0 111 -24t86.5 -80.5t35.5 -137.5q0 -106 -75.5 -170.5t-185.5 -64.5q-123 0 -204 96.5t-81 251.5q0 106 33.5 191.5t103.5 138t166 52.5q109 0 174.5 -46.5t65.5 -113.5q0 -42 -24 -62.5t-63 -20.5q-35 0 -59 18t-35 43.5t-19.5 51t-21 43.5t-30.5 18
q-39 0 -66.5 -55.5t-34.5 -169.5q47 41 123 41zM338 59q30 0 47.5 24.5t17.5 69.5q0 84 -29 164t-79 80q-33 0 -52.5 -23.5t-21.5 -62.5q6 -107 36 -179.5t81 -72.5z" />
    <glyph glyph-name="seven" unicode="7" horiz-adv-x="542" 
d="M513 710q12 0 19 -6.5t7 -16.5v-14q0 -12 -15 -55l-221 -589q-11 -29 -44 -29h-111q-20 0 -28 15t-1 29l277 527h-241q-19 0 -33.5 -13.5t-22.5 -30.5t-20.5 -30.5t-27.5 -13.5h-15q-28 0 -25 28l20 168q4 31 35 31h447z" />
    <glyph glyph-name="eight" unicode="8" horiz-adv-x="617" 
d="M431 380q76 -40 116.5 -80.5t40.5 -105.5q0 -72 -41 -119.5t-101.5 -66t-137.5 -18.5q-140 0 -209.5 52.5t-69.5 120.5q0 37 15 67.5t42 53t51 36.5t56 28q-67 40 -103 79t-36 94q0 94 70.5 146t191.5 52q117 0 176.5 -52.5t59.5 -129.5q0 -101 -121 -157zM307 654
q-35 0 -56.5 -20.5t-21.5 -49.5q0 -51 27.5 -86t77.5 -66q25 23 42.5 59.5t17.5 73.5q0 35 -22.5 62t-64.5 27zM316 59q41 0 69 23.5t28 57.5q0 52 -38 90t-110 78q-29 -29 -49.5 -68.5t-20.5 -76.5q0 -51 35 -77.5t86 -26.5z" />
    <glyph glyph-name="nine" unicode="9" horiz-adv-x="613" 
d="M296 720q125 0 204.5 -96t79.5 -252q0 -172 -73 -277t-222 -105q-97 0 -168.5 47.5t-71.5 112.5q0 39 25 61t62 22q34 0 56.5 -18t34 -43.5t20.5 -51t22 -43.5t33 -18q84 0 94 239q-45 -42 -124 -42q-45 0 -85 12.5t-74 38.5t-54 72t-20 107q0 106 74.5 170t186.5 64z
M318 325q72 0 72 95q-7 98 -37 164.5t-80 66.5q-30 0 -47 -24t-17 -69q0 -49 11 -100.5t37 -92t61 -40.5z" />
    <glyph glyph-name="colon" unicode=":" horiz-adv-x="291" 
d="M146 295q-46 0 -76 24t-30 70q0 47 30 71t76 24t75.5 -24t29.5 -71q0 -46 -30 -70t-75 -24zM146 -10q-46 0 -76 24t-30 71q0 46 30 70t76 24t75.5 -24t29.5 -70t-29.5 -70.5t-75.5 -24.5z" />
    <glyph glyph-name="semicolon" unicode=";" horiz-adv-x="294" 
d="M148 295q-45 0 -75 24t-30 70q0 47 29.5 71t75.5 24t76 -24t30 -71q0 -46 -30 -70t-76 -24zM101 -152q-17 -10 -31.5 5t-0.5 29q32 33 44 49.5t14 36.5q2 22 -13 22q-30 0 -51 26.5t-21 66.5q0 48 27.5 77.5t73.5 29.5q44 0 75.5 -33t31.5 -88q0 -130 -149 -221z" />
    <glyph glyph-name="less" unicode="&#x3c;" 
d="M473 391q0 -19 -24 -25l-237 -87l238 -106q23 -10 23 -26v-102q0 -9 -7.5 -14t-23.5 1l-308 157q-25 12 -25 35v110q0 24 26 35l307 134q14 6 22.5 0t8.5 -15v-97z" />
    <glyph glyph-name="equal" unicode="=" 
d="M101 327q-23 0 -23 18v75q0 8 6.5 13.5t16.5 5.5h397q10 0 16.5 -5.5t6.5 -13.5v-75q0 -18 -23 -18h-397zM101 134q-23 0 -23 18v75q0 8 6.5 13t16.5 5h397q10 0 16.5 -5t6.5 -13v-75q0 -18 -23 -18h-397z" />
    <glyph glyph-name="greater" unicode="&#x3e;" 
d="M464 369q27 -11 27 -35v-111q0 -24 -25 -36l-308 -157q-16 -6 -23.5 -1t-7.5 14v102q0 16 23 26l247 106l-246 87q-23 8 -23 26v98q0 9 8 15t22 0z" />
    <glyph glyph-name="question" unicode="?" horiz-adv-x="574" 
d="M202 238q-11 38 1 70.5t37.5 58t52.5 51t47 60t20 73.5q0 47 -20.5 73.5t-48.5 26.5q-30 0 -50 -30t-29.5 -66t-35 -66t-65.5 -30q-38 0 -62.5 22.5t-24.5 61.5q0 69 78 123t182 54q117 0 190.5 -47.5t73.5 -143.5q0 -46 -23 -83.5t-55 -61t-64.5 -44.5t-55.5 -46.5
t-23 -55.5q0 -18 -28 -26t-59 -1t-38 27zM266 -13q-44 0 -72.5 23t-28.5 67t28.5 67t72.5 23t72.5 -23t28.5 -67t-28.5 -67t-72.5 -23z" />
    <glyph glyph-name="at" unicode="@" horiz-adv-x="907" 
d="M488 734q181 0 297 -100.5t116 -254.5q0 -96 -62.5 -169t-171.5 -73q-40 0 -76 17.5t-56 47.5q-45 -66 -133 -66q-67 0 -118.5 45.5t-51.5 124.5q0 110 68 173t165 63q64 0 103 -39l2 10q3 18 21 18h88q23 0 18 -22l-44 -229q-6 -31 4.5 -49.5t34.5 -18.5q49 0 76 48
t27 118q0 135 -90.5 207.5t-237.5 72.5q-134 0 -236 -103t-102 -250q0 -126 78.5 -205.5t203.5 -79.5q73 0 156 30q16 6 21.5 -1.5t-0.5 -22.5l-9 -24q-6 -17 -26 -27q-68 -29 -157 -29q-158 0 -265 105t-107 256q0 79 31.5 154.5t89 136.5t147 98.5t196.5 37.5zM439 185
q24 0 47 26t31 63q0 1 0.5 2.5t0.5 2.5l24 122q8 93 -36 93q-39 0 -72.5 -65t-37.5 -160q-1 -40 10.5 -62t32.5 -22z" />
    <glyph glyph-name="A" unicode="A" horiz-adv-x="709" 
d="M25 0q-24 0 -24 19v4q0 13 23.5 36t34.5 50l187 484q9 22 -15 54t-24 40v4q0 19 23 19h230q23 0 23 -19v-4q0 -7 -8.5 -17.5t-17.5 -20t-14 -24t2 -29.5l210 -487q11 -27 34.5 -49.5t23.5 -36.5v-4q0 -19 -24 -19h-256q-24 0 -24 19v4q0 11 14.5 23.5t25 27.5t3.5 35
l-23 62h-253l-22 -62q-7 -20 3.5 -35t25 -27.5t14.5 -23.5v-4q0 -19 -24 -19h-148zM203 246h201l-101 277z" />
    <glyph glyph-name="B" unicode="B" horiz-adv-x="695" 
d="M488 382q86 -12 136 -61t50 -121q0 -92 -84 -146t-251 -54h-274q-24 0 -24 19v4q0 12 20 36.5t20 49.5v492q0 25 -20 49.5t-20 36.5v4q0 19 24 19h277q129 0 195.5 -50t66.5 -130q0 -56 -31.5 -95t-84.5 -53zM261 588v-126q0 -24 15 -38t39 -14h50q38 0 61 25.5t23 68.5
q0 64 -30.5 100t-82.5 36h-28q-47 0 -47 -52zM384 70q47 0 73.5 28.5t26.5 75.5q0 62 -48.5 114t-132.5 52h-42v-185q0 -37 20.5 -61t54.5 -24h48z" />
    <glyph glyph-name="C" unicode="C" horiz-adv-x="672" 
d="M367 -10q-146 0 -244.5 112t-98.5 262q0 154 92 254.5t241 100.5q118 0 204 -56.5t86 -134.5q0 -35 -22.5 -57t-60.5 -22q-34 0 -61 20.5t-44.5 49.5t-35.5 58.5t-43.5 50t-58.5 20.5q-50 0 -85.5 -47t-35.5 -127q0 -141 68 -231.5t157 -90.5q33 0 60.5 10t49 28.5
t33 32.5t26.5 35q14 17 35 11.5t20 -29.5q-4 -104 -76.5 -177t-205.5 -73z" />
    <glyph glyph-name="D" unicode="D" horiz-adv-x="769" 
d="M65 0q-24 0 -24 19v4q0 12 20 36.5t20 49.5v492q0 25 -20 49.5t-20 36.5v4q0 19 24 19h236q209 0 325.5 -99t116.5 -260q0 -157 -107.5 -254t-284.5 -97h-286zM347 70h40q74 0 120 51t46 146q0 97 -30 182.5t-85 138t-122 52.5h-11q-45 0 -45 -48v-419q0 -49 23 -76
t64 -27z" />
    <glyph glyph-name="E" unicode="E" horiz-adv-x="622" 
d="M65 0q-24 0 -24 19v4q0 12 20 36.5t20 50.5v490q0 26 -20 50.5t-20 36.5v4q0 19 23 19h458q16 0 23.5 -7t10.5 -24l24 -126q2 -13 -5 -21t-20 -8h-5q-19 0 -38.5 18.5t-34 40t-37 40t-46.5 18.5h-88q-45 0 -45 -49v-196h105q18 0 32 12.5t21 27.5t16.5 27.5t18.5 12.5h8
q20 0 20 -23v-180q0 -23 -20 -23h-8q-9 0 -18.5 12t-16.5 26t-21 26t-32 12h-105v-184q0 -30 14 -51.5t46 -21.5h105q24 0 44.5 19.5t33.5 42.5t31.5 42.5t38.5 19.5h9q11 0 17 -9.5t4 -20.5l-22 -131q-3 -17 -10.5 -24.5t-24.5 -7.5h-482z" />
    <glyph glyph-name="F" unicode="F" horiz-adv-x="603" 
d="M65 0q-24 0 -24 19v4q0 12 20 36.5t20 49.5v492q0 25 -20 49.5t-20 36.5v4q0 19 23 19h470q16 0 23.5 -7.5t10.5 -24.5l24 -126q2 -13 -5 -21t-20 -8h-5q-19 0 -38.5 18.5t-34 40t-37 40t-46.5 18.5h-96q-46 0 -46 -48v-224h112q16 0 29.5 12.5t21.5 28t18.5 28
t19.5 12.5h9q19 0 19 -23v-180q0 -23 -19 -23h-9q-12 0 -24.5 18.5t-28.5 37.5t-36 19h-112v-189q0 -25 22.5 -49.5t22.5 -36.5v-4q0 -19 -24 -19h-220z" />
    <glyph glyph-name="G" unicode="G" horiz-adv-x="718" 
d="M680 363q24 0 24 -19v-4q0 -12 -24.5 -36.5t-24.5 -50.5v-236q0 -11 -7 -19t-18 -8q-18 0 -29 11l-41 47q-34 -26 -84 -42t-95 -16q-160 0 -257.5 107t-97.5 259q0 109 50.5 193.5t126.5 127t161 42.5q126 0 210 -54t84 -131q0 -37 -21.5 -59t-58.5 -22q-30 0 -55.5 14.5
t-43 36t-36.5 47t-35 47t-39 36t-50 14.5q-51 0 -83.5 -49t-32.5 -125q0 -147 66.5 -250t160.5 -103q38 0 56 11v122q0 20 -14 35.5t-27.5 27.5t-13.5 24v4q0 19 26 19z" />
    <glyph glyph-name="H" unicode="H" horiz-adv-x="794" 
d="M65 0q-24 0 -24 19v4q0 12 20 36.5t20 49.5v492q0 25 -20 49.5t-20 36.5v4q0 19 24 19h218q24 0 24 -19v-4q0 -12 -21.5 -36.5t-21.5 -49.5l-1 -204h263l1 204q0 25 -19.5 49.5t-19.5 36.5v4q0 19 23 19h218q24 0 24 -19v-4q0 -12 -22.5 -36.5t-22.5 -49.5v-492
q0 -25 22.5 -49.5t22.5 -36.5v-4q0 -19 -24 -19h-218q-23 0 -23 19v4q0 12 19.5 36.5t19.5 49.5l-1 210h-262l-1 -210q0 -25 22 -49.5t22 -36.5v-4q0 -19 -24 -19h-218z" />
    <glyph glyph-name="I" unicode="I" horiz-adv-x="347" 
d="M41 19v4q0 12 20 36.5t20 49.5v492q0 25 -20 49.5t-20 36.5v4q0 19 24 19h217q24 0 24 -19v-4q0 -12 -22 -36.5t-22 -49.5v-492q0 -25 22 -49.5t22 -36.5v-4q0 -19 -24 -19h-217q-24 0 -24 19z" />
    <glyph glyph-name="J" unicode="J" horiz-adv-x="572" 
d="M319 601q0 25 -20 49.5t-20 36.5v4q0 19 24 19h220q23 0 23 -19v-4q0 -12 -22 -36.5t-22 -49.5v-283q0 -173 -64 -249.5t-187 -78.5q-69 -1 -119.5 17t-75.5 47t-36.5 58.5t-11.5 59.5q0 40 22 64t59 24t59 -20.5t30.5 -50t15.5 -58.5t22 -49.5t42 -20.5q61 0 61 146v394
z" />
    <glyph glyph-name="K" unicode="K" horiz-adv-x="731" 
d="M683 139q5 -34 32.5 -69.5t27.5 -46.5v-4q0 -19 -24 -19h-246q-24 0 -24 19v4q0 11 23 34.5t22 52.5q0 58 -42.5 132.5t-101.5 111.5l-87 -89v-155q0 -25 22 -50t22 -37v-4q0 -19 -24 -19h-218q-24 0 -24 19v4q0 12 20 37t20 50v491q0 25 -20 49.5t-20 36.5v4q0 19 24 19
h218q24 0 24 -19v-4q0 -12 -22 -36.5t-22 -49.5v-228l221 227q17 23 15 33.5t-12.5 27t-10.5 26.5v4q0 19 24 19h163q24 0 24 -19v-4q0 -12 -13.5 -23.5t-38.5 -28.5t-42 -35l-123 -125q91 -56 146.5 -154.5t66.5 -181.5z" />
    <glyph glyph-name="L" unicode="L" horiz-adv-x="608" 
d="M65 0q-24 0 -24 19v4q0 12 20 36.5t20 49.5v492q0 25 -20 49.5t-20 36.5v4q0 19 24 19h220q24 0 24 -19v-4q0 -12 -22.5 -36.5t-22.5 -49.5v-466q0 -27 12.5 -46t36.5 -19h104q28 0 51.5 22t36 49t28.5 49t31 22h14q25 0 20 -25l-26 -155q-6 -32 -35 -32h-472z" />
    <glyph glyph-name="M" unicode="M" horiz-adv-x="902" 
d="M850 110q5 -24 23 -49t18 -38v-4q0 -19 -24 -19h-208q-24 0 -24 19v4q0 11 19.5 36.5t15.5 50.5l-60 351l-153 -431q-10 -29 -36 -29q-30 0 -41 28l-177 450l-53 -369q-4 -26 16 -51t20 -36v-4q0 -19 -24 -19h-124q-24 0 -24 19v4q0 13 18.5 38t22.5 49l76 490
q4 26 -17.5 51t-21.5 36v4q0 19 23 19h218q23 0 23 -19v-4q0 -8 -10.5 -22t-18 -31t-0.5 -36l119 -346l118 354q6 17 -3 32.5t-20.5 28t-11.5 20.5v4q0 19 23 19h222q23 0 23 -19v-4q0 -10 -22 -36t-17 -53z" />
    <glyph glyph-name="N" unicode="N" horiz-adv-x="759" 
d="M704 710q24 0 24 -19v-4q0 -12 -22.5 -36.5t-22.5 -49.5v-554q0 -47 -46 -47h-57q-29 0 -53 33l-356 472v-395q0 -25 23.5 -50t23.5 -37v-4q0 -19 -25 -19h-128q-24 0 -24 19v4q0 12 20 37t20 50v490q0 25 -20 50t-20 37v4q0 19 24 19h235q23 0 23 -19v-4q0 -6 -7.5 -16
t-14.5 -19t-8.5 -23t11.5 -29l289 -388v389q0 25 -22 49.5t-22 36.5v4q0 19 24 19h131z" />
    <glyph glyph-name="O" unicode="O" horiz-adv-x="758" 
d="M380 -10q-146 0 -250 102t-104 259q0 165 97.5 267t255.5 102q146 0 249.5 -105.5t103.5 -264.5q0 -160 -101.5 -260t-250.5 -100zM432 65q54 0 84 38t30 105q0 86 -32 187.5t-87.5 175.5t-112.5 74q-53 0 -82.5 -38t-29.5 -108q0 -95 32 -195.5t86.5 -169.5t111.5 -69z
" />
    <glyph glyph-name="P" unicode="P" horiz-adv-x="650" 
d="M65 0q-24 0 -24 19v4q0 12 20 36.5t20 49.5v492q0 25 -20 49.5t-20 36.5v4q0 19 24 19h249q145 0 232 -58t87 -179q0 -113 -78 -180.5t-208 -67.5h-83v-116q0 -25 22.5 -49.5t22.5 -36.5v-4q0 -19 -24 -19h-220zM310 295h37q47 0 72.5 39t25.5 97q0 93 -40.5 151.5
t-90.5 58.5h-14q-36 0 -36 -48v-250q0 -48 46 -48z" />
    <glyph glyph-name="Q" unicode="Q" horiz-adv-x="758" 
d="M807 -28q14 1 19.5 -8.5t3.5 -28.5q-4 -42 -48.5 -82.5t-132.5 -40.5q-95 0 -169.5 45.5t-143.5 135.5q-132 15 -221 114.5t-89 243.5q0 165 97.5 267t255.5 102q146 0 249.5 -105.5t103.5 -264.5q0 -136 -75.5 -230.5t-195.5 -120.5q83 -63 191 -63q55 0 105 18z
M314 645q-53 0 -82.5 -38t-29.5 -108q0 -95 32 -195.5t86.5 -169.5t111.5 -69q54 0 84 38t30 105q0 86 -32 187.5t-87.5 175.5t-112.5 74z" />
    <glyph glyph-name="R" unicode="R" horiz-adv-x="701" 
d="M648 102q1 -20 22 -43t21 -36v-4q0 -19 -24 -19h-211q-24 0 -24 19v4q0 13 15.5 32.5t15.5 38.5q-2 131 -88 177l-111 -1v-161q0 -25 22.5 -49.5t22.5 -36.5v-4q0 -19 -24 -19h-220q-24 0 -24 19v4q0 12 20 36.5t20 49.5v492q0 25 -20 49.5t-20 36.5v4q0 19 24 19h269
q141 0 222 -58t81 -168q0 -46 -29 -93t-79 -78q113 -70 119 -211zM328 338h28q40 0 66 32.5t26 94.5q0 77 -39.5 126t-88.5 49h-18q-17 0 -27.5 -14.5t-10.5 -37.5v-170q0 -80 64 -80z" />
    <glyph glyph-name="S" unicode="S" horiz-adv-x="634" 
d="M330 -10q-131 0 -217 56t-86 126q0 71 72 71q29 0 51 -19.5t37 -47t32 -55t47 -46.5t71 -19q44 0 69.5 22t25.5 61t-21.5 65.5t-56 41t-76.5 26t-84 27t-76.5 38t-56.5 65t-22 101.5q0 96 74 156t197 60q121 0 204.5 -54.5t82.5 -124.5q0 -34 -19.5 -53.5t-56.5 -19.5
q-33 0 -56 19.5t-36.5 46.5t-27 54.5t-37 47t-57.5 19.5q-45 0 -69 -24.5t-24 -63.5q0 -43 21.5 -72.5t56 -45.5t76.5 -28.5t83.5 -27.5t76 -36.5t56 -61.5t21.5 -97q0 -95 -79.5 -151t-195.5 -56z" />
    <glyph glyph-name="T" unicode="T" horiz-adv-x="641" 
d="M210 0q-23 0 -23 19v4q0 12 21.5 36.5t21.5 49.5v526h-53q-23 0 -41.5 -19t-29 -41.5t-25.5 -41.5t-30 -19h-17q-28 0 -25 29l20 136q3 31 34 31h514q30 0 34 -31l21 -137q2 -13 -5 -20.5t-20 -7.5h-17q-15 0 -30 19t-26 41.5t-30 41.5t-42 19h-52v-526q0 -25 21.5 -49.5
t21.5 -36.5v-4q0 -19 -24 -19h-219z" />
    <glyph glyph-name="U" unicode="U" horiz-adv-x="764" 
d="M686 110q0 -27 7 -41t15.5 -15.5t15.5 -7t7 -19.5q0 -33 -104 -33q-51 0 -72.5 19.5t-24.5 79.5q-53 -103 -211 -103q-114 0 -182 71.5t-68 199.5v319q0 26 -20 50t-20 34v4q0 20 23 23l157 20q48 6 48 -20l-3 -456q-1 -85 30.5 -132t85.5 -47q71 0 105.5 51t34.5 129
v344q0 26 -24.5 50t-24.5 34v4q0 8 10.5 14.5t21.5 8.5l148 20q45 6 45 -20v-581z" />
    <glyph glyph-name="V" unicode="V" horiz-adv-x="726" 
d="M707 710q23 0 23 -19v-4q0 -14 -23 -36t-35 -50l-232 -551q-20 -50 -70 -50q-44 0 -66 46l-256 554q-12 25 -35 49t-23 38v4q0 19 24 19h267q24 0 24 -19v-4q0 -11 -15 -23.5t-26 -28t-3 -35.5l161 -398l153 399q8 20 -3 35t-26.5 27.5t-15.5 23.5v4q0 19 24 19h153z" />
    <glyph glyph-name="W" unicode="W" horiz-adv-x="992" 
d="M972 710q24 0 24 -19v-4q0 -14 -25 -36t-36 -50l-221 -551q-20 -50 -61 -50q-47 0 -65 46l-71 183l-77 -179q-22 -50 -68 -50q-50 0 -71 46l-248 554q-12 27 -38 50t-26 37v4q0 19 24 19h235q23 0 23 -19v-4q0 -11 -13.5 -24.5t-21 -24.5t0.5 -38l171 -412l64 155
l-100 258q-11 27 -32.5 49.5t-21.5 36.5v4q0 19 23 19h148q24 0 31 -23l43 -127l54 128q9 22 33 22h84q24 0 24 -19v-4q0 -12 -14 -19.5t-34 -21t-29 -35.5l-75 -176l76 -223l155 389q8 19 -1.5 34t-23.5 28t-14 24v4q0 19 24 19h150z" />
    <glyph glyph-name="X" unicode="X" horiz-adv-x="726" 
d="M651 109q14 -20 34.5 -36.5t31.5 -27t11 -22.5v-4q0 -19 -24 -19h-268q-24 0 -24 19v4q0 10 13 25.5t18.5 26.5t-6.5 34l-124 171l-113 -171q-11 -23 -7 -34t14 -26.5t10 -25.5v-4q0 -19 -24 -19h-168q-24 0 -24 19v4q0 12 13.5 23t35.5 27.5t36 35.5l176 241l-182 251
q-15 20 -35.5 37t-31 27t-10.5 22v4q0 19 24 19h263q24 0 24 -19v-4q0 -10 -13 -26t-18.5 -26.5t6.5 -33.5l122 -166l111 166q11 22 4 33t-21.5 26.5t-14.5 26.5v4q0 19 24 19h184q24 0 24 -19v-4q0 -12 -15.5 -23t-39.5 -27t-38 -36l-166 -236z" />
    <glyph glyph-name="Y" unicode="Y" horiz-adv-x="696" 
d="M667 710q23 0 23 -19v-4q0 -14 -26 -37t-40 -49l-173 -310v-182q0 -25 22 -49.5t22 -36.5v-4q0 -19 -24 -19h-220q-24 0 -24 19v4q0 12 20 36.5t20 49.5v166l-202 326q-13 20 -31 36.5t-28 27t-10 22.5v4q0 19 24 19h271q24 0 24 -19v-4q0 -11 -16 -24t-26.5 -28
t-0.5 -34l133 -240l132 240q11 20 0.5 35t-27 27.5t-16.5 23.5v4q0 19 24 19h149z" />
    <glyph glyph-name="Z" unicode="Z" horiz-adv-x="632" 
d="M601 203q30 0 23 -28l-31 -151q-7 -24 -25 -24h-526q-10 0 -18 7t-8 17v13q0 6 3.5 13t9.5 16l8 12l343 563h-187q-19 0 -37.5 -19.5t-31.5 -42.5t-32.5 -42.5t-39.5 -19.5h-6q-36 0 -27 37l28 125q4 17 11.5 24t23.5 7h496q10 0 17 -7t7 -17v-13q0 -5 -26 -51l-332 -553
h190q26 0 50 21t40 46t36 46t37 21h4z" />
    <glyph glyph-name="bracketleft" unicode="[" horiz-adv-x="324" 
d="M91 -106q-25 0 -25 24v838q0 24 25 24h191q20 0 20 -20v-37q0 -20 -20 -20h-69v-732h69q20 0 20 -20v-37q0 -20 -20 -20h-191z" />
    <glyph glyph-name="backslash" unicode="\" horiz-adv-x="386" 
d="M292 -93q-20 0 -26 16l-243 844q-9 26 15 26h56q22 0 25 -15l245 -844q9 -27 -16 -27h-56z" />
    <glyph glyph-name="bracketright" unicode="]" horiz-adv-x="324" 
d="M41 -106q-20 0 -20 20v37q0 20 20 20h70v732h-70q-20 0 -20 20v37q0 20 20 20h192q24 0 24 -24v-838q0 -24 -24 -24h-192z" />
    <glyph glyph-name="asciicircum" unicode="^" 
d="M480 563q21 -26 4 -48.5t-45 -2.5l-150 111l-133 -111q-11 -9 -25.5 -3.5t-19.5 19.5t8 35l110 155q14 20 47 20h35q33 0 47 -19z" />
    <glyph glyph-name="underscore" unicode="_" horiz-adv-x="453" 
d="M49 -81q-23 0 -23 23v35q0 23 23 23h355q22 0 22 -23v-35q0 -23 -22 -23h-355z" />
    <glyph glyph-name="grave" unicode="`" 
d="M346 540l-206 55q-20 5 -26.5 20.5t3.5 33.5l33 68q21 42 59 12l172 -135q21 -17 6 -41q-12 -20 -41 -13z" />
    <glyph glyph-name="a" unicode="a" horiz-adv-x="602" 
d="M575 433q0 -8 -11 -19t-22 -29t-11 -42v-234q0 -25 20 -49.5t20 -36.5v-4q0 -19 -22 -19h-143q-11 0 -18.5 7t-7.5 18v9q-46 -44 -122 -44q-97 0 -166.5 66.5t-69.5 183.5q0 109 70 179.5t167 70.5q74 0 121 -42v6q0 16 13 24t35 5l123 -18q24 -3 24 -28v-4zM298 39
q27 -1 45.5 22t18.5 62v193q0 54 -27 89.5t-63 35.5q-74 0 -79 -123q-2 -47 8.5 -109t36 -115.5t60.5 -54.5z" />
    <glyph glyph-name="b" unicode="b" horiz-adv-x="598" 
d="M341 490q93 0 164.5 -63.5t71.5 -177.5q0 -115 -69.5 -187t-166.5 -72q-74 0 -121 44v-9q0 -26 -26 -26l-151 1q-23 0 -23 19v4q0 12 20 36.5t20 50.5v455q0 26 -24.5 48.5t-24.5 34.5v4q0 16 27 28l154 71q19 10 33 4t14 -27v-268q39 30 102 30zM325 39q76 0 76 126
q0 60 -9.5 120t-34 108t-58.5 48q-27 0 -43.5 -23.5t-16.5 -64.5v-194q0 -46 26.5 -83t59.5 -37z" />
    <glyph glyph-name="c" unicode="c" horiz-adv-x="508" 
d="M279 -10q-114 0 -187 74.5t-73 176.5q0 113 74 180.5t180 68.5q89 1 151 -40.5t62 -107.5q0 -25 -17.5 -42t-55.5 -16q-34 2 -58.5 27t-35.5 54t-30 52.5t-43 23.5q-31 -1 -50.5 -33t-19.5 -79q0 -98 44.5 -157t118.5 -59q67 0 111 58q10 12 24 8.5t14 -19.5
q-2 -70 -57 -120t-152 -50z" />
    <glyph glyph-name="d" unicode="d" horiz-adv-x="590" 
d="M532 109q0 -25 20 -49.5t20 -36.5v-4q0 -19 -23 -19h-143q-26 0 -26 25v9q-47 -44 -122 -44q-97 0 -166.5 66.5t-69.5 183.5q0 109 70 179.5t167 70.5q61 0 103 -28v133q0 20 -13 34.5t-26.5 25t-13.5 22.5v3q0 19 23 26l156 47q44 14 44 -24v-620zM298 39q27 -1 45.5 22
t18.5 62v193q0 48 -27.5 86.5t-62.5 38.5q-74 0 -79 -123q-2 -47 8.5 -109t36 -115.5t60.5 -54.5z" />
    <glyph glyph-name="e" unicode="e" horiz-adv-x="499" 
d="M442 158q11 11 24.5 6.5t12.5 -20.5q-1 -23 -13.5 -48t-35.5 -49.5t-63.5 -40.5t-91.5 -16q-112 0 -182.5 70t-70.5 183q0 109 72 177.5t176 69.5q89 1 144 -39t55 -106q0 -52 -44.5 -92t-115.5 -51q-50 -9 -100 -7q42 -81 126 -81q74 0 107 44zM249 437q-31 0 -49.5 -31
t-18.5 -81q0 -41 9 -77q28 -1 50 2q68 12 68 108q-1 33 -17.5 56t-41.5 23z" />
    <glyph glyph-name="f" unicode="f" horiz-adv-x="388" 
d="M261 683q-34 0 -38.5 -42t8 -87.5t28.5 -73.5h113q10 0 16.5 -6.5t6.5 -16.5v-22q0 -10 -6.5 -16.5t-16.5 -6.5h-109v-302q0 -26 27 -50.5t27 -36.5v-4q0 -19 -23 -19h-220q-23 0 -23 19v4q0 12 20 36.5t20 50.5v302h-65q-10 0 -16.5 6.5t-6.5 16.5v22q0 10 6.5 16.5
t16.5 6.5h65v50q0 89 52 145t155 56q66 0 113 -38t47 -89q0 -23 -17 -41.5t-48 -18.5q-33 0 -52 14.5t-25.5 35t-10.5 40.5t-14 34.5t-30 14.5z" />
    <glyph glyph-name="g" unicode="g" horiz-adv-x="593" 
d="M553 465q24 -3 24 -28v-4q0 -8 -11 -19t-22 -29t-11 -42v-279q0 -127 -71 -195.5t-179 -68.5q-109 0 -178.5 38.5t-69.5 95.5q0 26 18 46t51 20q27 0 46.5 -15.5t32 -37.5t25 -44.5t31.5 -38t45 -16.5q35 -1 57.5 38.5t22.5 124.5v19q-44 -30 -105 -30q-96 0 -165.5 65
t-69.5 175q0 109 69.5 179.5t166.5 70.5q74 0 122 -42v6q0 16 13 24t35 5zM299 49q27 -1 46 22t19 62v183q0 48 -28 86.5t-63 38.5q-73 0 -78 -123q-2 -45 8 -105t36 -111.5t60 -52.5z" />
    <glyph glyph-name="h" unicode="h" horiz-adv-x="607" 
d="M558 110q2 -25 19 -49.5t17 -37.5v-4q0 -19 -24 -19h-199q-24 0 -24 19v4q0 12 18.5 37t17.5 50l-10 186q-4 69 -20 98.5t-50 29.5q-32 0 -48.5 -26t-16.5 -71v-218q0 -25 22.5 -49.5t22.5 -36.5v-4q0 -19 -24 -19h-217q-23 0 -23 19v4q0 12 22 36.5t22 49.5v464
q0 26 -24.5 47t-24.5 33v3q0 18 23 28l158 70q17 8 27.5 2t10.5 -23v-290q45 47 122 47q74 0 128 -47.5t62 -152.5z" />
    <glyph glyph-name="i" unicode="i" horiz-adv-x="310" 
d="M159 539q-51 0 -83 28.5t-32 71.5t32 71.5t83 28.5q50 0 82 -28.5t32 -71.5t-32 -71.5t-82 -28.5zM52 0q-24 0 -24 19v4q0 12 20 37t20 50v190q0 26 -20 50.5t-20 33.5v4q0 12 23 23l151 74q21 9 33 2t12 -23v-354q0 -25 22.5 -50t22.5 -37v-4q0 -19 -25 -19h-215z" />
    <glyph glyph-name="j" unicode="j" horiz-adv-x="294" 
d="M147 539q-50 0 -82 28.5t-32 71.5t32 71.5t82 28.5q51 0 82.5 -28.5t31.5 -71.5t-31.5 -71.5t-82.5 -28.5zM62 -199q-74 0 -117 26.5t-43 80.5q0 32 21 52t53 20q29 0 46 -12.5t24 -31t11.5 -36.5t14 -30.5t26.5 -12.5q16 0 26.5 12t10.5 30q0 25 -10.5 46.5t-22.5 34
t-22.5 31t-10.5 39.5v250q0 26 -20 50t-20 34v4q0 11 22 23l152 74q21 9 33.5 2t12.5 -23v-471q0 -80 -39 -127q-55 -65 -148 -65z" />
    <glyph glyph-name="k" unicode="k" horiz-adv-x="599" 
d="M558 84q4 -7 29.5 -25.5t25.5 -35.5v-4q0 -19 -23 -19h-209q-23 0 -23 20v4q0 12 15 29t6 31l-86 134q-28 -5 -53 -5v-103q0 -25 22.5 -50t22.5 -37v-4q0 -19 -24 -19h-217q-24 0 -24 19v4q0 12 20 37t20 50v456q0 26 -24 50.5t-24 34.5v4q0 11 23 23l160 74q21 8 33 1.5
t12 -22.5v-447q47 4 76.5 27t42 52t22.5 58t29.5 48.5t52.5 19.5q39 0 58.5 -20.5t19.5 -53.5q0 -36 -28.5 -76.5t-79.5 -71.5z" />
    <glyph glyph-name="l" unicode="l" horiz-adv-x="303" 
d="M44 0q-23 0 -23 19v4q0 12 19.5 36.5t19.5 49.5v457q0 26 -19.5 50.5t-19.5 34.5v4q0 11 22 23l151 74q21 9 33.5 1.5t12.5 -22.5v-622q0 -25 22 -49.5t22 -36.5v-4q0 -19 -24 -19h-216z" />
    <glyph glyph-name="m" unicode="m" horiz-adv-x="920" 
d="M872 109q2 -25 19 -50t17 -37v-4q0 -19 -24 -19h-200q-24 0 -24 19v4q0 11 19 36t17 51l-10 177q-4 75 -20 106.5t-49 31.5q-30 0 -46 -26t-16 -69q3 -21 3 -42v-178q0 -25 18 -50t18 -37v-4q0 -19 -24 -19h-199q-24 0 -24 19v4q0 12 17.5 37t17.5 50v190q0 125 -68 125
q-33 0 -50 -26t-17 -69v-220q0 -25 22 -50t22 -37v-4q0 -19 -24 -19h-216q-24 0 -24 19v4q0 12 22 37t22 50v197q0 20 -13.5 34.5t-26.5 25.5t-13 23v3q0 13 24 25l150 69q18 8 28 0t10 -24v-36q46 64 133 64q111 0 164 -82q20 39 59 60.5t89 21.5q73 0 124.5 -49t59.5 -161
z" />
    <glyph glyph-name="n" unicode="n" horiz-adv-x="616" 
d="M568 109q2 -25 19 -49.5t17 -37.5v-4q0 -19 -24 -19h-200q-24 0 -24 19v4q0 12 19 37t17 50l-10 179q-4 74 -19.5 105t-49.5 31q-32 0 -48.5 -26t-16.5 -71v-218q0 -25 22 -50t22 -37v-4q0 -19 -24 -19h-216q-24 0 -24 19v4q0 12 22 37t22 50v197q0 21 -13 35.5t-26.5 25
t-13.5 22.5v3q0 13 24 25l140 69q19 8 28.5 0.5t9.5 -24.5v-47q42 75 143 75q75 0 129 -49t62 -159z" />
    <glyph glyph-name="o" unicode="o" horiz-adv-x="587" 
d="M298 -10q-116 0 -196.5 71.5t-80.5 179.5t80 178.5t190 70.5q114 0 194 -71t80 -180q0 -108 -78 -178.5t-189 -70.5zM319 39q64 0 64 123q0 45 -12.5 107t-42 117t-65.5 55q-35 0 -50 -31t-15 -94q0 -33 8 -78t22 -90.5t38.5 -77t52.5 -31.5z" />
    <glyph glyph-name="p" unicode="p" horiz-adv-x="595" 
d="M336 490q93 0 164.5 -63.5t71.5 -178.5t-69.5 -186.5t-166.5 -71.5q-61 0 -102 29v-121q0 -25 22.5 -49.5t22.5 -36.5v-4q0 -19 -24 -19h-212q-24 0 -24 19v4q0 12 20 36.5t20 49.5v410q0 23 -24 43.5t-24 33.5v5q0 16 23 29l132 65q22 9 32 3t10 -23v-29q39 55 128 55z
M320 39q76 0 76 126q0 60 -9.5 120t-34 108t-58.5 48q-27 0 -43.5 -22t-16.5 -57v-181q0 -62 26 -102t60 -40z" />
    <glyph glyph-name="q" unicode="q" horiz-adv-x="592" 
d="M576 433q0 -8 -11 -19t-22 -29t-11 -42v-445q0 -25 20 -50t20 -37v-3q0 -19 -24 -19h-206q-24 0 -24 19v3q0 12 22 37t22 50v122q-44 -30 -104 -30q-97 0 -166.5 66.5t-69.5 183.5q0 109 70 179.5t167 70.5q74 0 121 -42v6q0 16 13 24t35 5l124 -18q24 -3 24 -28v-4z
M298 39q27 -1 45.5 22t18.5 62v193q0 54 -27 89.5t-63 35.5q-74 0 -79 -123q-2 -47 8.5 -109t36 -115.5t60.5 -54.5z" />
    <glyph glyph-name="r" unicode="r" horiz-adv-x="454" 
d="M360 490q43 0 68.5 -28t25.5 -71q0 -94 -77 -94q-31 0 -47 14.5t-18.5 32.5t-10.5 32.5t-24 14.5q-37 0 -37 -96v-186q0 -25 26.5 -49.5t26.5 -36.5v-4q0 -19 -24 -19h-215q-24 0 -24 19v4q0 12 20 36.5t20 49.5v199q0 20 -12 34t-24 24t-12 22v3q0 17 23 29l141 66
q20 7 28 1t8 -23v-73q34 99 138 99z" />
    <glyph glyph-name="s" unicode="s" horiz-adv-x="484" 
d="M243 -9q-96 0 -158 32.5t-62 84.5q0 32 19.5 48t51.5 16q34 0 54 -21.5t27 -47t24 -47t44 -21.5q54 0 54 55q0 36 -27.5 57t-66.5 32t-77.5 25t-66 47t-27.5 87q0 67 59 109.5t152 42.5t151.5 -35t58.5 -85q0 -26 -19.5 -43.5t-47.5 -17.5q-33 0 -52 21t-25.5 46.5
t-20 46.5t-36.5 21q-22 0 -34.5 -17t-12.5 -40q0 -37 26.5 -60t64 -35t75 -26t64 -45.5t26.5 -82.5q0 -64 -58.5 -105.5t-159.5 -41.5z" />
    <glyph glyph-name="t" unicode="t" horiz-adv-x="403" 
d="M233 -10q-76 0 -119.5 48t-43.5 137v237h-38q-10 0 -16.5 6.5t-6.5 16.5v22q0 23 23 23h19q46 0 79 27.5t43 73.5q5 26 27 26h23q27 0 27 -26v-101h103q10 0 16.5 -6.5t6.5 -16.5v-22q0 -10 -6.5 -16.5t-16.5 -6.5h-103v-240q0 -25 13 -39.5t32 -14.5q43 0 66 37
q7 9 16 10.5t15.5 -3.5t6.5 -14q0 -63 -44.5 -110.5t-121.5 -47.5z" />
    <glyph glyph-name="u" unicode="u" horiz-adv-x="596" 
d="M536 110q0 -27 6.5 -41t15 -15.5t15 -7.5t6.5 -19q0 -19 -25.5 -26t-77.5 -7q-47 0 -68.5 13t-25.5 45q-40 -62 -141 -62q-80 0 -133.5 52.5t-53.5 144.5v167q0 26 -20 50t-20 34v4q0 20 23 23l149 20q47 6 47 -20l-3 -296q-1 -60 14.5 -86.5t49.5 -26.5q28 0 47 27.5
t19 72.5v198q0 26 -20 50t-20 34v4q0 20 23 23l149 20q44 6 44 -20v-355z" />
    <glyph glyph-name="v" unicode="v" horiz-adv-x="546" 
d="M243 -10q-36 0 -66.5 9.5t-59.5 32t-45.5 67.5t-16.5 108v147q0 26 -20 50t-20 34v4q0 8 6 15t16 8l149 20q48 6 48 -20l-4 -310q-1 -53 12.5 -75.5t42.5 -23.5q58 -2 103 63.5t45 134.5q0 28 -15 49.5t-33.5 33t-33.5 33t-15 50.5q0 30 20.5 49.5t56.5 19.5
q49 0 78.5 -38.5t29.5 -114.5q0 -154 -77.5 -250t-200.5 -96z" />
    <glyph glyph-name="w" unicode="w" horiz-adv-x="818" 
d="M684 490q51 0 79.5 -39t28.5 -115q0 -159 -71 -252.5t-184 -93.5q-98 0 -141 78q-54 -78 -160 -78q-33 0 -62 9.5t-57.5 32t-45 67.5t-16.5 108v147q0 26 -20 50t-20 34v4q0 8 6 15t16 8l149 20q48 6 48 -29l-4 -322q-1 -35 12 -56.5t35 -21.5q43 0 66.5 61t23.5 133v104
q0 26 -20 50t-20 34v4q0 20 23 23l137 21q47 8 47 -30l-3 -318q-2 -82 47 -82t88 64.5t39 130.5q0 28 -15.5 49.5t-33.5 33.5t-33.5 34.5t-15.5 51.5q0 31 21 50.5t56 19.5z" />
    <glyph glyph-name="x" unicode="x" horiz-adv-x="556" 
d="M484 110q11 -13 31.5 -31t31.5 -31t11 -25v-4q0 -19 -23 -19h-231q-22 0 -22 20v4q0 8 9 17t17.5 15.5t7 21.5t-18.5 35l-57 69l-64 -76q-14 -17 -15 -30.5t6 -20.5t14.5 -15.5t7.5 -15.5v-4q0 -20 -23 -20h-149q-23 0 -23 19v4q0 12 12 23.5t36 29.5t40 35l116 120
l-115 138q-18 22 -39 39.5t-29.5 26.5t-8.5 22v4q0 19 23 19h232q22 0 22 -20v-4q0 -10 -9.5 -27t-12 -28t11.5 -34l58 -71l64 71q16 24 11.5 35.5t-17.5 27.5t-13 26v4q0 20 23 20h126q22 0 22 -19v-4q0 -13 -9 -24.5t-28.5 -30.5t-31.5 -33l-105 -124z" />
    <glyph glyph-name="y" unicode="y" horiz-adv-x="571" 
d="M485 486q44 6 44 -21v-402q0 -127 -78 -195t-195 -68q-89 0 -154 39t-65 103q0 28 19 47t52 19q28 0 47 -16.5t29.5 -39.5t20 -46.5t27 -40t43.5 -17.5q79 -2 79 187v1q-44 -36 -120 -36q-74 0 -127 52t-53 135v167q0 26 -20 50t-20 34v4q0 20 23 23l149 20q47 6 47 -20
l-3 -296q-1 -103 57 -103q28 0 47.5 26t19.5 65v197q0 26 -20.5 50t-20.5 34v4q0 20 23 23z" />
    <glyph glyph-name="z" unicode="z" horiz-adv-x="513" 
d="M483 160q30 0 21 -31l-30 -105q-7 -24 -25 -24h-401q-10 0 -18 7t-8 17v13q0 11 22 41l235 358h-85q-22 0 -43 -16.5t-34 -36.5t-31 -36.5t-36 -16.5h-6q-16 0 -22 11t-1 27l27 81q6 18 12.5 24.5t22.5 6.5h372q10 0 16.5 -5.5t6.5 -13.5v-10q0 -10 -31 -59l-228 -348h96
q26 0 50.5 18t40 40t34.5 40t36 18h7z" />
    <glyph glyph-name="braceleft" unicode="{" horiz-adv-x="355" 
d="M318 -44q14 0 20 -17t0.5 -34t-20.5 -17q-214 0 -217 202l-1 109q0 101 -59 101q-21 0 -30 18t-0.5 35.5t30.5 17.5q59 0 59 91l1 130q1 193 217 193q16 0 24 -17t2 -34t-26 -17q-36 0 -52.5 -25.5t-17.5 -92.5l-1 -124q-1 -66 -30.5 -98.5t-65.5 -41.5q36 -8 65 -42.5
t28 -106.5l-1 -104q-1 -74 16 -100t59 -26z" />
    <glyph glyph-name="bar" unicode="|" horiz-adv-x="245" 
d="M84 -90q-18 0 -18 24v753q0 22 19 24l74 -1q19 0 19 -23l1 -753q0 -11 -5.5 -18t-13.5 -6h-76z" />
    <glyph glyph-name="braceright" unicode="}" horiz-adv-x="356" 
d="M315 371q22 0 30 -17.5t-1 -35.5t-29 -18q-29 0 -44 -22.5t-16 -78.5v-109q-3 -202 -217 -202q-15 0 -20.5 17t0.5 34t20 17q42 0 59 26t16 100l-2 104q-1 73 29.5 108t66.5 41q-36 7 -66.5 39.5t-31.5 100.5l-1 124q-1 67 -18 92.5t-53 25.5q-19 0 -25 17t2 34t23 17
q218 0 218 -193v-130q0 -91 60 -91z" />
    <glyph glyph-name="asciitilde" unicode="~" 
d="M195 399q43 0 113 -29.5t103 -29.5q46 0 69 31q12 15 26 15h26q20 0 17 -21q-11 -68 -50.5 -104.5t-96.5 -36.5q-47 0 -113.5 30.5t-99.5 30.5q-43 0 -64 -32q-5 -8 -7.5 -11t-8.5 -5.5t-15 -2.5h-20q-18 0 -15 24q5 53 39 97t97 44z" />
    <glyph glyph-name="exclamdown" unicode="&#xa1;" horiz-adv-x="268" 
d="M134 309q-46 0 -76 24.5t-30 70.5t30 70.5t76 24.5t76 -24.5t30 -70.5t-30 -70.5t-76 -24.5zM224 -166q0 -24 -18.5 -40t-45 -19.5t-53 0.5t-45 20.5t-18.5 39.5q0 67 14.5 184t40.5 224q5 17 35 17.5t35 -17.5q55 -203 55 -409z" />
    <glyph glyph-name="cent" unicode="&#xa2;" horiz-adv-x="546" 
d="M472 284q10 12 28.5 7.5t17.5 -20.5q-3 -64 -50 -117t-138 -62v-69q0 -25 -19 -25h-27q-20 0 -20 25v70q-103 13 -167 91t-64 173q0 117 65 188t166 81v73q0 23 20 23h27q19 0 19 -23v-73q75 -8 125.5 -46t50.5 -90q0 -28 -20 -48t-53 -20q-27 0 -47.5 15.5t-32 37.5
t-22.5 43.5t-27 37t-37 14.5q-29 -1 -45.5 -35t-16.5 -87q0 -100 41.5 -162.5t112.5 -62.5q69 0 113 61z" />
    <glyph glyph-name="sterling" unicode="&#xa3;" horiz-adv-x="685" 
d="M608 175q11 17 31 13t20 -25q-3 -71 -62 -125t-167 -54q-71 0 -156 52q-56 -46 -129 -46q-52 0 -79.5 28t-27.5 70t30 69t80 27q38 0 77 -11q1 8 1 26q0 42 -19 87h-135q-24 0 -24 16v44q0 17 24 17h92q-19 30 -29.5 49t-20 49t-9.5 60q0 98 76.5 153t197.5 55
q100 0 169 -37t69 -103q0 -29 -20 -52t-55 -23q-34 0 -56 15t-33 36t-20.5 42t-26 36t-42.5 15q-34 0 -53.5 -32t-19.5 -85q0 -76 32 -178h148q24 0 24 -17v-44q0 -16 -24 -16h-128q8 -40 8 -81q0 -32 -12 -68q67 -20 116 -20q50 0 95.5 18.5t57.5 39.5zM141 47q37 0 61 38
q-46 30 -67 30q-36 0 -36 -32q0 -16 12 -26t30 -10z" />
    <glyph glyph-name="currency" unicode="&#xa4;" horiz-adv-x="607" 
d="M497 222l53 -53q17 -19 2 -32l-22 -23q-15 -15 -33 3l-56 57q-59 -37 -141 -37q-78 0 -134 35l-54 -55q-18 -18 -33 -3l-22 23q-15 13 2 32l52 52q-43 54 -43 125t44 124l-53 53q-17 19 -2 32l22 23q15 15 33 -3l56 -56q58 34 132 34q80 0 139 -36l58 58q18 18 33 3
l22 -23q15 -13 -2 -32l-54 -54q44 -53 44 -123q0 -68 -43 -124zM305 234q49 0 78 31.5t29 80.5q0 48 -29 78.5t-78 30.5t-79 -30.5t-30 -78.5q0 -49 30 -80.5t79 -31.5z" />
    <glyph glyph-name="yen" unicode="&#xa5;" horiz-adv-x="736" 
d="M690 710q24 0 24 -19v-4q0 -14 -26 -37t-40 -49l-145 -259h102q24 0 24 -17v-27q0 -16 -24 -16h-130v-50h115q24 0 24 -17v-25q0 -17 -24 -17h-115v-64q0 -25 22 -49.5t22 -36.5v-4q0 -19 -24 -19h-220q-24 0 -24 19v4q0 12 20 36.5t20 49.5v64h-140q-24 0 -24 17v25
q0 17 24 17h140v43l-4 7h-152q-23 0 -23 16v27q0 17 23 17h114l-161 259q-14 23 -41 47t-27 39v4q0 19 24 19h270q25 0 25 -19v-4q0 -11 -16 -24t-26.5 -28t-0.5 -34l133 -240l132 240q11 20 0.5 35t-27 27.5t-16.5 23.5v4q0 19 24 19h148z" />
    <glyph glyph-name="brokenbar" unicode="&#xa6;" horiz-adv-x="245" 
d="M84 361q-18 0 -18 23v302q0 22 19 24h74q19 0 19 -24l1 -302q0 -10 -5.5 -17t-13.5 -6h-76zM84 -90q-18 0 -18 24v305q0 22 19 24h74q19 0 19 -24l1 -305q0 -11 -5.5 -18t-13.5 -6h-76z" />
    <glyph glyph-name="section" unicode="&#xa7;" horiz-adv-x="650" 
d="M544 157q65 -47 65 -122q0 -81 -74.5 -135t-193.5 -54q-142 0 -226 47t-84 126q0 36 21 57t61 21q29 0 50.5 -18.5t36.5 -45t31.5 -53.5t46.5 -45.5t71 -18.5q38 0 60.5 18t22.5 47q0 34 -22 58t-56.5 38t-77 26.5t-84 28.5t-76 38t-56 61.5t-20.5 92.5q1 40 22 75t51 55
q-60 48 -60 131q0 89 74.5 143.5t189.5 54.5q121 0 206.5 -53.5t85.5 -127.5q0 -37 -21 -58.5t-61 -21.5q-36 0 -61 20t-39 48l-28 56t-36 48t-54 20q-37 0 -58 -21.5t-21 -54.5q0 -42 21 -71t55 -44.5t75 -27t82.5 -25.5t75.5 -34.5t55 -58t21 -91.5q0 -32 -19 -67t-52 -62
zM212 355q0 -19 6 -34.5t20 -28t26.5 -21.5t37.5 -19t39.5 -15t45.5 -15t45 -14q14 22 14 49q0 21 -9.5 39t-22.5 29t-38.5 22.5t-43.5 17.5t-52 16t-52 16q-16 -19 -16 -42z" />
    <glyph glyph-name="dieresis" unicode="&#xa8;" 
d="M169 544q-45 0 -74 26t-29 65t29 64.5t74 25.5q46 0 74 -25.5t28 -64.5t-28 -65t-74 -26zM419 544q-46 0 -74.5 26t-28.5 65t28.5 64.5t74.5 25.5q45 0 73.5 -25.5t28.5 -64.5t-28.5 -65t-73.5 -26z" />
    <glyph glyph-name="copyright" unicode="&#xa9;" horiz-adv-x="869" 
d="M435 -61q-167 0 -286 118.5t-119 285.5t119 285t286 118t285.5 -118.5t118.5 -284.5q0 -167 -118.5 -285.5t-285.5 -118.5zM435 18q126 0 215 95.5t89 229.5t-89 229t-215 95q-127 0 -216 -95t-89 -229q0 -135 89 -230t216 -95zM439 117q-97 0 -164 67.5t-67 159.5
q0 95 66.5 159.5t167.5 63.5q81 -1 141.5 -42t60.5 -99q0 -22 -19.5 -39t-51.5 -17q-33 0 -53.5 23t-28 50.5t-23.5 50.5t-40 23q-64 0 -64 -116q0 -72 35 -115.5t101 -43.5q69 0 104 49q10 12 25 7t14 -21q-2 -70 -57.5 -115t-146.5 -45z" />
    <glyph glyph-name="ordfeminine" unicode="&#xaa;" horiz-adv-x="439" 
d="M387 458q2 -18 8.5 -26.5t13 -9.5t11 -6.5t4.5 -17.5q-1 -32 -90 -32q-34 0 -49.5 7.5t-19.5 26.5q-28 -37 -92 -37q-65 0 -104 28t-39 80t38.5 81t99.5 29q43 0 72 -18q-7 70 -16 91.5t-35 21.5q-13 0 -22 -13t-14.5 -28t-22 -28t-41.5 -13q-23 0 -37 12.5t-14 34.5
q0 41 44.5 60t106.5 19q72 0 123 -39t60 -105zM216 409q16 0 26 10t9 26h1l-4 38q-3 23 -15.5 37t-29.5 14q-14 0 -23.5 -11t-9.5 -30q0 -38 12.5 -61t33.5 -23z" />
    <glyph glyph-name="guillemotleft" unicode="&#xab;" horiz-adv-x="535" 
d="M157 279q43 -35 73 -86t33 -87q0 -8 -10.5 -14t-25.5 -4.5t-24 12.5q-32 38 -91.5 82t-73.5 57q-12 11 -11.5 44.5t11.5 43.5q2 2 24 19t27.5 21.5t24 20t27.5 24.5t23.5 23t26 27.5t21.5 28.5q9 13 31 8t22 -19q-3 -53 -32 -109.5t-76 -91.5zM499 480q-3 -54 -31.5 -110
t-75.5 -91q43 -35 73 -86t33 -87q0 -8 -10.5 -14t-25.5 -4.5t-24 12.5q-32 38 -91.5 82t-73.5 57q-13 11 -12.5 44.5t12.5 43.5q2 2 24 19t27.5 21.5t24 20t27.5 24.5t23.5 23t26 27.5t21.5 28.5q9 13 31 8t21 -19z" />
    <glyph glyph-name="registered" unicode="&#xae;" horiz-adv-x="869" 
d="M435 746q167 0 285.5 -118.5t118.5 -284.5q0 -167 -118.5 -286t-285.5 -119t-286 119t-119 286t119 285t286 118zM435 19q126 0 215 95t89 229t-89 229t-215 95q-127 0 -216 -95t-89 -229q0 -135 89 -229.5t216 -94.5zM608 220q11 -22 25.5 -32t14.5 -18v-7
q0 -15 -14 -15h-152q-13 0 -13 12v10q0 6 7 12.5t9.5 12.5t-5.5 25l-43 84l-36 -1v-82q0 -14 13 -28.5t13 -21.5v-11q0 -12 -14 -12h-148q-14 0 -14 12v11q0 7 12 21.5t12 28.5v278q0 15 -12 29.5t-12 21.5v2q0 12 14 12h170q93 0 144 -33.5t51 -98.5q1 -33 -20 -63.5
t-60 -47.5zM401 383q0 -34 28 -34h12q18 0 31.5 19.5t13.5 52.5q0 44 -14 70.5t-37 26.5h-10q-10 0 -17 -8.5t-7 -21.5v-105z" />
    <glyph glyph-name="macron" unicode="&#xaf;" 
d="M164 579q-24 0 -24 24v60q0 24 24 24h283q24 0 24 -24v-60q0 -24 -24 -24h-283z" />
    <glyph glyph-name="degree" unicode="&#xb0;" horiz-adv-x="410" 
d="M204 378q-81 0 -132 47.5t-51 117.5q0 73 51.5 123t132.5 50t132 -47.5t51 -117.5q0 -73 -51.5 -123t-132.5 -50zM205 426q34 0 55.5 35t21.5 87q0 50 -21.5 83.5t-55.5 33.5q-35 0 -56.5 -33.5t-21.5 -83.5q0 -53 21.5 -87.5t56.5 -34.5z" />
    <glyph glyph-name="plusminus" unicode="&#xb1;" 
d="M263 162q-17 0 -17 24v153h-152q-24 0 -26 18l1 72q0 18 25 18h152v152q0 24 17 26l73 -1q18 0 18 -25v-152l153 1q25 0 25 -18v-73q0 -18 -25 -18h-152v-153q0 -11 -5.5 -18t-12.5 -6h-74zM94 0q-25 0 -25 16v74q0 18 25 18h413q25 0 25 -18v-74q0 -16 -25 -16h-413z
" />
    <glyph glyph-name="acute" unicode="&#xb4;" horiz-adv-x="561" 
d="M162 540q-29 -7 -41 13q-15 25 7 41l171 135q19 14 35 10.5t25 -22.5l32 -68q10 -18 3.5 -33.5t-26.5 -20.5z" />
    <glyph glyph-name="paragraph" unicode="&#xb6;" horiz-adv-x="712" 
d="M383 -223q-115 -2 -187 58.5t-72 123.5q0 40 22 64.5t59 24.5t61 -20.5t35 -50t20.5 -59.5t27 -50.5t44.5 -20.5q37 0 57 30t20 116v640h-82v-387q0 -21 -21 -21l-118 -1q-95 -1 -160 68.5t-65 180.5q0 105 65 171t160 66h400q24 0 24 -20v-3q0 -13 -22.5 -37t-22.5 -50
l-1 -520q0 -142 -67.5 -221.5t-176.5 -81.5z" />
    <glyph glyph-name="periodcentered" unicode="&#xb7;" horiz-adv-x="274" 
d="M137 291q-46 0 -76 24.5t-30 70.5t30 70.5t76 24.5t76 -24.5t30 -70.5t-30 -70.5t-76 -24.5z" />
    <glyph glyph-name="cedilla" unicode="&#xb8;" 
d="M350 -51q51 2 89 -19.5t38 -65.5t-42 -67t-104 -23q-56 0 -88 14q-22 10 -18 40q3 21 16 19q2 0 4 -1q22 -12 58 -12q22 0 36.5 9.5t14.5 27.5t-18.5 26t-40.5 8q-31 0 -26 30l13 65h70z" />
    <glyph glyph-name="ordmasculine" unicode="&#xba;" horiz-adv-x="441" 
d="M221 367q-85 0 -143.5 50t-58.5 127t58 126.5t143 49.5q84 0 142 -50t58 -127q0 -78 -57.5 -127t-141.5 -49zM235 411q42 0 42 80q0 54 -21 119.5t-57 65.5q-42 0 -42 -79q0 -24 5 -54.5t14 -60.5t24.5 -50.5t34.5 -20.5z" />
    <glyph glyph-name="guillemotright" unicode="&#xbb;" horiz-adv-x="532" 
d="M263 327q11 -10 11.5 -43.5t-11.5 -44.5q-15 -13 -74.5 -57t-91.5 -82q-15 -17 -37.5 -12.5t-22.5 18.5q3 36 33 87t74 86q-48 35 -76.5 91t-31.5 110q-1 14 21 19t31 -8q11 -15 22 -28.5t25.5 -27.5t24 -23t27.5 -24t24.5 -20t27.5 -22t24 -19zM494 327
q11 -10 11.5 -43.5t-11.5 -44.5q-15 -13 -74.5 -57t-91.5 -82q-15 -17 -37.5 -12.5t-22.5 18.5q3 36 33 87t74 86q-48 35 -76.5 91t-31.5 110q-1 14 21 19t31 -8q11 -15 22 -28.5t25.5 -27.5t24 -23t27.5 -24t24.5 -20t27.5 -22t24 -19z" />
    <glyph glyph-name="onequarter" unicode="&#xbc;" horiz-adv-x="753" 
d="M229 332q0 -12 -16 -12h-152q-16 0 -16 12v3q0 7 16 22t16 31v211q0 14 -7.5 21.5t-17 9.5t-17 6.5t-7.5 11.5v3q0 14 19 20l149 50q10 3 16 -1t6 -11v-3q0 -8 -11 -26.5t-11 -42.5v-249q0 -16 16.5 -31t16.5 -22v-3zM631 596q16 -13 0 -30l-429 -479q-15 -19 -35 1
l-34 32q-17 14 -3 28l430 479q17 17 31 5zM713 134q12 0 12 -11v-26q0 -12 -12 -12h-40v-24q0 -15 13 -28.5t13 -20.5v-2q0 -12 -13 -12h-130q-14 0 -14 12v2q0 7 12 20.5t12 28.5v24h-154q-25 0 -25 21v10q0 22 9 33l152 214q17 24 43 24h68q14 0 14 -14v-239h40zM457 134
h109v171z" />
    <glyph glyph-name="onehalf" unicode="&#xbd;" horiz-adv-x="797" 
d="M228 332q0 -12 -15 -12h-151q-16 0 -16 12v3q0 7 15.5 22t15.5 31v212q0 22 -24 30t-24 18v3q0 14 19 20l148 50q10 3 16 -1t6 -11v-3q0 -8 -11 -26.5t-11 -42.5v-249q0 -16 16 -31t16 -22v-3zM631 596q16 -14 0 -30l-429 -479q-14 -19 -35 1l-34 32q-17 14 -3 28
l431 479q16 18 30 5zM758 120q15 0 12 -13l-20 -93q-4 -14 -14 -14h-286q-5 0 -10 4t-5 9v8q0 38 20.5 71t49.5 56t58.5 44t50 45.5t20.5 50.5q0 48 -37 48q-16 0 -26.5 -17.5t-16.5 -38t-20.5 -38t-36.5 -17.5t-37 14t-15 37q0 39 48 70t111 31q68 0 108.5 -27.5
t40.5 -73.5q0 -39 -26.5 -70t-59.5 -48t-75 -39.5t-61 -41.5h148q15 0 25.5 6.5t15 15t11 15t14.5 6.5h13z" />
    <glyph glyph-name="threequarters" unicode="&#xbe;" horiz-adv-x="787" 
d="M338 456q0 -50 -41.5 -82t-112.5 -32q-72 0 -115 28t-43 61q0 46 44 46q20 0 35.5 -15.5t23.5 -33.5t21.5 -33.5t30.5 -15.5q20 0 33 14.5t13 39.5q0 76 -62 76h-9q-14 0 -18.5 13.5t5.5 26.5l57 77h-130q-19 0 -19 18v50q0 16 18 16h257q14 0 14 -12v-7q0 -14 -13 -26
l-111 -106q122 -17 122 -103zM671 596q16 -13 0 -30l-430 -479q-14 -19 -34 1l-34 32q-16 14 -4 28l431 479q16 17 31 5zM744 134q11 0 11 -11v-26q0 -12 -11 -12h-41v-24q0 -15 13 -28.5t13 -20.5v-2q0 -12 -13 -12h-129q-14 0 -14 12v2q0 7 12 20.5t12 28.5v24h-154
q-26 0 -26 21v10q0 20 9 33l152 214q17 24 43 24h68q14 0 14 -14v-239h41zM487 134h110v173z" />
    <glyph glyph-name="questiondown" unicode="&#xbf;" horiz-adv-x="567" 
d="M304 343q-43 0 -72 23t-29 67t29 67t72 23q44 0 73 -23t29 -67t-29 -67t-73 -23zM287 -209q-117 0 -190.5 47.5t-73.5 143.5q0 46 23 83.5t55.5 61t64.5 44.5t55 46.5t23 55.5q0 18 28 26t59 1t38 -27q11 -38 -1.5 -70.5t-37.5 -58t-52 -51t-47 -60t-20 -73.5
q0 -48 20.5 -74t48.5 -26q25 0 42 19.5t27 48t21.5 56.5t34 47.5t56.5 19.5q37 0 61.5 -22t24.5 -61q0 -69 -78.5 -123t-181.5 -54z" />
    <glyph glyph-name="Agrave" unicode="&#xc0;" horiz-adv-x="711" 
d="M437 767l-213 12q-21 0 -30 14t-4 34l18 72q12 46 56 25l195 -96q24 -12 16 -39q-9 -22 -38 -22zM25 0q-24 0 -24 19v4q0 13 23.5 36t34.5 50l187 484q9 22 -15 54t-24 40v4q0 19 23 19h230q23 0 23 -19v-4q0 -7 -8.5 -17.5t-17.5 -20t-14 -24t2 -29.5l210 -487
q11 -27 34.5 -49.5t23.5 -36.5v-4q0 -19 -24 -19h-256q-24 0 -24 19v4q0 11 14.5 23.5t25 27.5t3.5 35l-23 62h-253l-22 -62q-7 -20 3.5 -35t25 -27.5t14.5 -23.5v-4q0 -19 -24 -19h-148zM203 246h201l-101 277z" />
    <glyph glyph-name="Aacute" unicode="&#xc1;" horiz-adv-x="711" 
d="M261 774q-29 -2 -38 20q-11 25 13 40l192 103q21 11 36 4t21 -27l20 -72q6 -20 -2.5 -34t-29.5 -15zM25 0q-24 0 -24 19v4q0 13 23.5 36t34.5 50l187 484q9 22 -15 54t-24 40v4q0 19 23 19h230q23 0 23 -19v-4q0 -7 -8.5 -17.5t-17.5 -20t-14 -24t2 -29.5l210 -487
q11 -27 34.5 -49.5t23.5 -36.5v-4q0 -19 -24 -19h-256q-24 0 -24 19v4q0 11 14.5 23.5t25 27.5t3.5 35l-23 62h-253l-22 -62q-7 -20 3.5 -35t25 -27.5t14.5 -23.5v-4q0 -19 -24 -19h-148zM203 246h201l-101 277z" />
    <glyph glyph-name="Acircumflex" unicode="&#xc2;" horiz-adv-x="711" 
d="M205 759q-21 -11 -40.5 7.5t3.5 43.5l110 114q19 20 47 20h35q28 0 48 -19l122 -115q23 -23 6 -44.5t-48 -6.5l-149 73zM655 109q11 -27 34.5 -49.5t23.5 -36.5v-4q0 -19 -24 -19h-256q-24 0 -24 19v4q0 11 14.5 23.5t25 27.5t3.5 35l-23 62h-253l-22 -62q-7 -20 3.5 -35
t25 -27.5t14.5 -23.5v-4q0 -19 -24 -19h-148q-24 0 -24 19v4q0 13 23.5 36t34.5 50l187 484q9 22 -15 54t-24 40v4q0 19 23 19h230q23 0 23 -19v-4q0 -7 -8.5 -17.5t-17.5 -20t-14 -24t2 -29.5zM203 246h201l-101 277z" />
    <glyph glyph-name="Atilde" unicode="&#xc3;" horiz-adv-x="711" 
d="M290 908q39 0 89.5 -23.5t68.5 -23.5q31 0 45 22q11 14 25 14h7q22 0 17 -23q-12 -51 -42.5 -84t-73.5 -33q-34 0 -86.5 25t-75.5 25t-39 -19q-1 -2 -3.5 -5.5t-3.5 -4.5l-3 -3t-4 -3t-5 -1.5t-7 -0.5h-11q-9 0 -13.5 6t-2.5 17q10 48 41.5 81.5t76.5 33.5zM25 0
q-24 0 -24 19v4q0 13 23.5 36t34.5 50l187 484q9 22 -15 54t-24 40v4q0 19 23 19h230q23 0 23 -19v-4q0 -7 -8.5 -17.5t-17.5 -20t-14 -24t2 -29.5l210 -487q11 -27 34.5 -49.5t23.5 -36.5v-4q0 -19 -24 -19h-256q-24 0 -24 19v4q0 11 14.5 23.5t25 27.5t3.5 35l-23 62h-253
l-22 -62q-7 -20 3.5 -35t25 -27.5t14.5 -23.5v-4q0 -19 -24 -19h-148zM203 246h201l-101 277z" />
    <glyph glyph-name="Adieresis" unicode="&#xc4;" horiz-adv-x="711" 
d="M226 767q-45 0 -74 26t-29 65t29 64.5t74 25.5t73.5 -25.5t28.5 -64.5t-28.5 -65t-73.5 -26zM475 767q-45 0 -73.5 26t-28.5 65t28.5 64.5t73.5 25.5t74 -25.5t29 -64.5t-29 -65t-74 -26zM25 0q-24 0 -24 19v4q0 13 23.5 36t34.5 50l187 484q9 22 -15 54t-24 40v4
q0 19 23 19h230q23 0 23 -19v-4q0 -7 -8.5 -17.5t-17.5 -20t-14 -24t2 -29.5l210 -487q11 -27 34.5 -49.5t23.5 -36.5v-4q0 -19 -24 -19h-256q-24 0 -24 19v4q0 11 14.5 23.5t25 27.5t3.5 35l-23 62h-253l-22 -62q-7 -20 3.5 -35t25 -27.5t14.5 -23.5v-4q0 -19 -24 -19h-148
zM203 246h201l-101 277z" />
    <glyph glyph-name="Aring" unicode="&#xc5;" horiz-adv-x="711" 
d="M353 739q-64 0 -106 31t-42 78q0 53 41 84t108 31q65 0 107.5 -30.5t42.5 -77.5q0 -53 -41 -84.5t-110 -31.5zM354 787q47 0 47 65q0 28 -13.5 44t-33.5 16q-46 0 -46 -60q0 -29 13.5 -47t32.5 -18zM25 0q-24 0 -24 19v4q0 13 23.5 36t34.5 50l187 484q9 22 -15 54
t-24 40v4q0 19 23 19h230q23 0 23 -19v-4q0 -7 -8.5 -17.5t-17.5 -20t-14 -24t2 -29.5l210 -487q11 -27 34.5 -49.5t23.5 -36.5v-4q0 -19 -24 -19h-256q-24 0 -24 19v4q0 11 14.5 23.5t25 27.5t3.5 35l-23 62h-253l-22 -62q-7 -20 3.5 -35t25 -27.5t14.5 -23.5v-4
q0 -19 -24 -19h-148zM203 246h201l-101 277z" />
    <glyph glyph-name="AE" unicode="&#xc6;" horiz-adv-x="969" 
d="M936 186q10 0 15.5 -6.5t3.5 -16.5l-25 -131q-3 -17 -10.5 -24.5t-23.5 -7.5h-436q-25 0 -25 19v4q0 12 20.5 37t20.5 50v61h-251l-37 -62q-10 -24 -4 -35t18.5 -26t12.5 -25v-4q0 -19 -24 -19h-176q-24 0 -24 19v4q0 12 11.5 22.5t31 26.5t32.5 37l285 471q11 26 4.5 41
t-20 34.5t-13.5 28.5v7q0 19 23 19h525q16 0 23.5 -7t10.5 -24l21 -118q2 -13 -5 -20.5t-20 -7.5h-6q-17 0 -35 17t-31.5 37t-35 37t-46.5 17h-61q-46 0 -46 -49v-191h82q18 0 32.5 12t21.5 27t16.5 27t18.5 12h9q19 0 19 -24v-179q0 -24 -19 -24h-9q-9 0 -18.5 11.5
t-16.5 25.5t-21.5 25.5t-32.5 11.5h-82v-191q0 -31 15.5 -48.5t44.5 -17.5h75q28 0 51.5 18.5t36.5 40t30.5 40t34.5 18.5h9zM270 246h206l-1 343z" />
    <glyph glyph-name="Ccedilla" unicode="&#xc7;" horiz-adv-x="672" 
d="M594 258q14 17 35 11.5t20 -29.5q-4 -97 -67.5 -167.5t-179.5 -81.5l-2 -42q51 2 89 -19.5t38 -65.5t-42 -67t-104 -23q-56 0 -88 14q-22 11 -17 40q3 21 16 19q2 0 4 -1q21 -12 58 -12q21 0 36 9.5t14 27.5q0 18 -18.5 26t-40.5 8q-31 0 -26 30l12 57
q-133 15 -220 123.5t-87 248.5q0 154 92 254.5t241 100.5q118 0 204 -56.5t86 -134.5q0 -35 -22.5 -57t-60.5 -22q-34 0 -61 20.5t-44.5 49.5t-35.5 58.5t-43.5 50t-58.5 20.5q-50 0 -85.5 -47t-35.5 -127q0 -141 68 -231.5t157 -90.5q33 0 60.5 10t49 28.5t33 32.5t26.5 35
z" />
    <glyph glyph-name="Egrave" unicode="&#xc8;" horiz-adv-x="622" 
d="M395 767l-213 12q-21 0 -30 14t-4 34l18 72q12 46 56 25l195 -96q24 -12 16 -39q-9 -22 -38 -22zM65 0q-24 0 -24 19v4q0 12 20 36.5t20 50.5v490q0 26 -20 50.5t-20 36.5v4q0 19 23 19h458q16 0 23.5 -7t10.5 -24l24 -126q2 -13 -5 -21t-20 -8h-5q-19 0 -38.5 18.5
t-34 40t-37 40t-46.5 18.5h-88q-45 0 -45 -49v-196h105q18 0 32 12.5t21 27.5t16.5 27.5t18.5 12.5h8q20 0 20 -23v-180q0 -23 -20 -23h-8q-9 0 -18.5 12t-16.5 26t-21 26t-32 12h-105v-184q0 -30 14 -51.5t46 -21.5h105q24 0 44.5 19.5t33.5 42.5t31.5 42.5t38.5 19.5h9
q11 0 17 -9.5t4 -20.5l-22 -131q-3 -17 -10.5 -24.5t-24.5 -7.5h-482z" />
    <glyph glyph-name="Eacute" unicode="&#xc9;" horiz-adv-x="622" 
d="M219 774q-29 -2 -38 20q-11 25 13 40l192 103q21 11 36 4t21 -27l20 -72q6 -20 -2.5 -34t-29.5 -15zM65 0q-24 0 -24 19v4q0 12 20 36.5t20 50.5v490q0 26 -20 50.5t-20 36.5v4q0 19 23 19h458q16 0 23.5 -7t10.5 -24l24 -126q2 -13 -5 -21t-20 -8h-5q-19 0 -38.5 18.5
t-34 40t-37 40t-46.5 18.5h-88q-45 0 -45 -49v-196h105q18 0 32 12.5t21 27.5t16.5 27.5t18.5 12.5h8q20 0 20 -23v-180q0 -23 -20 -23h-8q-9 0 -18.5 12t-16.5 26t-21 26t-32 12h-105v-184q0 -30 14 -51.5t46 -21.5h105q24 0 44.5 19.5t33.5 42.5t31.5 42.5t38.5 19.5h9
q11 0 17 -9.5t4 -20.5l-22 -131q-3 -17 -10.5 -24.5t-24.5 -7.5h-482z" />
    <glyph glyph-name="Ecircumflex" unicode="&#xca;" horiz-adv-x="622" 
d="M163 759q-21 -11 -40 7.5t3 43.5l110 114q19 20 48 20h34q29 0 48 -19l122 -115q23 -23 6.5 -44.5t-47.5 -6.5l-150 73zM583 193q11 0 17 -9.5t4 -20.5l-22 -131q-3 -17 -10.5 -24.5t-24.5 -7.5h-482q-24 0 -24 19v4q0 12 20 36.5t20 50.5v490q0 26 -20 50.5t-20 36.5v4
q0 19 23 19h458q16 0 23.5 -7t10.5 -24l24 -126q2 -13 -5 -21t-20 -8h-5q-19 0 -38.5 18.5t-34 40t-37 40t-46.5 18.5h-88q-45 0 -45 -49v-196h105q18 0 32 12.5t21 27.5t16.5 27.5t18.5 12.5h8q20 0 20 -23v-180q0 -23 -20 -23h-8q-9 0 -18.5 12t-16.5 26t-21 26t-32 12
h-105v-184q0 -30 14 -51.5t46 -21.5h105q24 0 44.5 19.5t33.5 42.5t31.5 42.5t38.5 19.5h9z" />
    <glyph glyph-name="Edieresis" unicode="&#xcb;" horiz-adv-x="622" 
d="M184 767q-46 0 -74.5 26t-28.5 65t28.5 64.5t74.5 25.5q45 0 73.5 -25.5t28.5 -64.5t-28.5 -65t-73.5 -26zM433 767q-45 0 -73.5 26t-28.5 65t28.5 64.5t73.5 25.5t74 -25.5t29 -64.5t-29 -65t-74 -26zM65 0q-24 0 -24 19v4q0 12 20 36.5t20 50.5v490q0 26 -20 50.5
t-20 36.5v4q0 19 23 19h458q16 0 23.5 -7t10.5 -24l24 -126q2 -13 -5 -21t-20 -8h-5q-19 0 -38.5 18.5t-34 40t-37 40t-46.5 18.5h-88q-45 0 -45 -49v-196h105q18 0 32 12.5t21 27.5t16.5 27.5t18.5 12.5h8q20 0 20 -23v-180q0 -23 -20 -23h-8q-9 0 -18.5 12t-16.5 26
t-21 26t-32 12h-105v-184q0 -30 14 -51.5t46 -21.5h105q24 0 44.5 19.5t33.5 42.5t31.5 42.5t38.5 19.5h9q11 0 17 -9.5t4 -20.5l-22 -131q-3 -17 -10.5 -24.5t-24.5 -7.5h-482z" />
    <glyph glyph-name="Igrave" unicode="&#xcc;" horiz-adv-x="347" 
d="M263 767l-213 12q-21 0 -30 14t-4 34l18 72q12 46 56 25l195 -96q24 -12 16 -39q-9 -22 -38 -22zM41 19v4q0 12 20 36.5t20 49.5v492q0 25 -20 49.5t-20 36.5v4q0 19 24 19h217q24 0 24 -19v-4q0 -12 -22 -36.5t-22 -49.5v-492q0 -25 22 -49.5t22 -36.5v-4q0 -19 -24 -19
h-217q-24 0 -24 19z" />
    <glyph glyph-name="Iacute" unicode="&#xcd;" horiz-adv-x="347" 
d="M87 774q-29 -2 -38 20q-10 26 14 40l192 103q42 22 56 -23l20 -72q6 -20 -2.5 -34t-29.5 -15zM41 19v4q0 12 20 36.5t20 49.5v492q0 25 -20 49.5t-20 36.5v4q0 19 24 19h217q24 0 24 -19v-4q0 -12 -22 -36.5t-22 -49.5v-492q0 -25 22 -49.5t22 -36.5v-4q0 -19 -24 -19
h-217q-24 0 -24 19z" />
    <glyph glyph-name="Icircumflex" unicode="&#xce;" horiz-adv-x="347" 
d="M356 810q23 -23 6.5 -44.5t-47.5 -6.5l-150 73l-134 -73q-21 -11 -40 7.5t3 43.5l110 114q19 20 48 20h34q29 0 48 -19zM282 710q24 0 24 -19v-4q0 -12 -22 -36.5t-22 -49.5v-492q0 -25 22 -49.5t22 -36.5v-4q0 -19 -24 -19h-217q-24 0 -24 19v4q0 12 20 36.5t20 49.5
v492q0 25 -20 49.5t-20 36.5v4q0 19 24 19h217z" />
    <glyph glyph-name="Idieresis" unicode="&#xcf;" horiz-adv-x="347" 
d="M52 767q-45 0 -74 26t-29 65t29 64.5t74 25.5q46 0 74 -25.5t28 -64.5q0 -40 -28 -65.5t-74 -25.5zM302 767q-46 0 -74.5 26t-28.5 65t28.5 64.5t74.5 25.5q45 0 73.5 -25.5t28.5 -64.5t-28.5 -65t-73.5 -26zM41 19v4q0 12 20 36.5t20 49.5v492q0 25 -20 49.5t-20 36.5v4
q0 19 24 19h217q24 0 24 -19v-4q0 -12 -22 -36.5t-22 -49.5v-492q0 -25 22 -49.5t22 -36.5v-4q0 -19 -24 -19h-217q-24 0 -24 19z" />
    <glyph glyph-name="Eth" unicode="&#xd0;" horiz-adv-x="773" 
d="M304 710q209 0 325.5 -99t116.5 -260q0 -157 -107.5 -254t-284.5 -97h-286q-24 0 -24 19v4q0 12 20 36.5t20 49.5v221h-44q-17 0 -17 16v34q0 17 17 17h44v204q0 25 -20 49.5t-20 36.5v4q0 19 24 19h236zM390 70q74 0 120 51t46 146q0 97 -30 182.5t-85 138t-122 52.5
h-11q-45 0 -45 -48v-195h95q18 0 18 -17v-30q0 -20 -18 -20h-95v-157q0 -49 23 -76t64 -27h40z" />
    <glyph glyph-name="Ntilde" unicode="&#xd1;" horiz-adv-x="759" 
d="M235 770q-20 0 -15 23q10 49 41.5 82t76.5 33q39 0 89.5 -23.5t68.5 -23.5q29 0 45 22q9 14 25 14h7q21 0 16 -23q-11 -51 -41.5 -84t-73.5 -33q-34 0 -86.5 25t-75.5 25t-39 -19q-2 -3 -5 -6.5t-4 -5t-3.5 -3.5t-5.5 -2.5t-8 -0.5h-12zM704 710q24 0 24 -19v-4
q0 -12 -22.5 -36.5t-22.5 -49.5v-554q0 -47 -46 -47h-57q-29 0 -53 33l-356 472v-395q0 -25 23.5 -50t23.5 -37v-4q0 -19 -25 -19h-128q-24 0 -24 19v4q0 12 20 37t20 50v490q0 25 -20 50t-20 37v4q0 19 24 19h235q23 0 23 -19v-4q0 -6 -7.5 -16t-14.5 -19t-8.5 -23
t11.5 -29l289 -388v389q0 25 -22 49.5t-22 36.5v4q0 19 24 19h131z" />
    <glyph glyph-name="Ograve" unicode="&#xd2;" horiz-adv-x="758" 
d="M462 767l-213 12q-21 0 -30 14t-4 34l18 72q12 46 56 25l195 -96q24 -12 16 -39q-9 -22 -38 -22zM380 -10q-146 0 -250 102t-104 259q0 165 97.5 267t255.5 102q146 0 249.5 -105.5t103.5 -264.5q0 -160 -101.5 -260t-250.5 -100zM432 65q54 0 84 38t30 105
q0 86 -32 187.5t-87.5 175.5t-112.5 74q-53 0 -82.5 -38t-29.5 -108q0 -95 32 -195.5t86.5 -169.5t111.5 -69z" />
    <glyph glyph-name="Oacute" unicode="&#xd3;" horiz-adv-x="758" 
d="M286 774q-29 -2 -38 20q-11 25 13 40l192 103q21 11 36 4t21 -27l20 -72q6 -20 -2.5 -34t-29.5 -15zM380 -10q-146 0 -250 102t-104 259q0 165 97.5 267t255.5 102q146 0 249.5 -105.5t103.5 -264.5q0 -160 -101.5 -260t-250.5 -100zM432 65q54 0 84 38t30 105
q0 86 -32 187.5t-87.5 175.5t-112.5 74q-53 0 -82.5 -38t-29.5 -108q0 -95 32 -195.5t86.5 -169.5t111.5 -69z" />
    <glyph glyph-name="Ocircumflex" unicode="&#xd4;" horiz-adv-x="758" 
d="M230 759q-21 -11 -40 7.5t3 43.5l110 114q19 20 48 20h34q29 0 48 -19l122 -115q23 -23 6.5 -44.5t-47.5 -6.5l-150 73zM379 720q146 0 249.5 -105.5t103.5 -264.5q0 -160 -101.5 -260t-250.5 -100q-146 0 -250 102t-104 259q0 165 97.5 267t255.5 102zM432 65
q54 0 84 38t30 105q0 86 -32 187.5t-87.5 175.5t-112.5 74q-53 0 -82.5 -38t-29.5 -108q0 -95 32 -195.5t86.5 -169.5t111.5 -69z" />
    <glyph glyph-name="Otilde" unicode="&#xd5;" horiz-adv-x="758" 
d="M316 908q39 0 89.5 -23.5t68.5 -23.5q29 0 45 22q9 14 24 14h8q21 0 16 -23q-11 -51 -42 -84t-74 -33q-34 0 -86 25t-75 25t-39 -19q-2 -2 -5 -6t-4.5 -5.5t-4 -3.5t-5.5 -2.5t-8 -0.5h-11q-19 0 -16 23q10 48 42 81.5t77 33.5zM380 -10q-146 0 -250 102t-104 259
q0 165 97.5 267t255.5 102q146 0 249.5 -105.5t103.5 -264.5q0 -160 -101.5 -260t-250.5 -100zM432 65q54 0 84 38t30 105q0 86 -32 187.5t-87.5 175.5t-112.5 74q-53 0 -82.5 -38t-29.5 -108q0 -95 32 -195.5t86.5 -169.5t111.5 -69z" />
    <glyph glyph-name="Odieresis" unicode="&#xd6;" horiz-adv-x="758" 
d="M251 767q-45 0 -74 26t-29 65t29 64.5t74 25.5q46 0 74 -25.5t28 -64.5q0 -40 -28 -65.5t-74 -25.5zM501 767q-46 0 -74.5 26t-28.5 65t28.5 64.5t74.5 25.5q45 0 73.5 -25.5t28.5 -64.5t-28.5 -65t-73.5 -26zM380 -10q-146 0 -250 102t-104 259q0 165 97.5 267
t255.5 102q146 0 249.5 -105.5t103.5 -264.5q0 -160 -101.5 -260t-250.5 -100zM432 65q54 0 84 38t30 105q0 86 -32 187.5t-87.5 175.5t-112.5 74q-53 0 -82.5 -38t-29.5 -108q0 -95 32 -195.5t86.5 -169.5t111.5 -69z" />
    <glyph glyph-name="multiply" unicode="&#xd7;" 
d="M162 104l-51 51q-13 13 5 30l107 108l-107 108q-18 17 -5 30l51 51q12 12 30 -5l108 -107l108 108q19 19 30 4l51 -51q13 -12 -5 -30l-107 -107l108 -109q19 -19 4 -30l-51 -51q-12 -13 -30 5l-108 107l-108 -107q-18 -17 -30 -5z" />
    <glyph glyph-name="Oslash" unicode="&#xd8;" horiz-adv-x="769" 
d="M730 647l-68 -65q75 -99 75 -232q0 -160 -101 -260t-250 -100q-140 0 -242 94l-60 -57q-14 -12 -27 0l-26 23q-13 12 5 30l61 58q-65 92 -65 213q0 164 97.5 266.5t254.5 102.5q130 0 229 -86l64 61q17 17 31 4l26 -24q11 -13 -4 -28zM208 499q0 -104 39 -216l228 219
q-33 65 -73.5 104t-81.5 39q-54 0 -83 -38t-29 -108zM552 208q0 105 -46 224l-229 -220q34 -67 76 -107t85 -40q54 0 84 38.5t30 104.5z" />
    <glyph glyph-name="Ugrave" unicode="&#xd9;" horiz-adv-x="764" 
d="M245 779q-21 0 -30 14t-4 34l18 72q12 46 56 25l195 -96q25 -12 15 -39q-7 -22 -37 -22zM686 110q0 -27 7 -41t15.5 -15.5t15.5 -7t7 -19.5q0 -33 -104 -33q-51 0 -72.5 19.5t-24.5 79.5q-53 -103 -211 -103q-114 0 -182 71.5t-68 199.5v319q0 26 -20 50t-20 34v4
q0 20 23 23l157 20q48 6 48 -20l-3 -456q-1 -85 30.5 -132t85.5 -47q71 0 105.5 51t34.5 129v344q0 26 -24.5 50t-24.5 34v4q0 8 10.5 14.5t21.5 8.5l148 20q45 6 45 -20v-581z" />
    <glyph glyph-name="Uacute" unicode="&#xda;" horiz-adv-x="764" 
d="M282 774q-29 -2 -38 20q-10 26 13 40l192 103q43 22 57 -23l20 -72q6 -20 -2.5 -34t-29.5 -15zM686 110q0 -27 7 -41t15.5 -15.5t15.5 -7t7 -19.5q0 -33 -104 -33q-51 0 -72.5 19.5t-24.5 79.5q-53 -103 -211 -103q-114 0 -182 71.5t-68 199.5v319q0 26 -20 50t-20 34v4
q0 20 23 23l157 20q48 6 48 -20l-3 -456q-1 -85 30.5 -132t85.5 -47q71 0 105.5 51t34.5 129v344q0 26 -24.5 50t-24.5 34v4q0 8 10.5 14.5t21.5 8.5l148 20q45 6 45 -20v-581z" />
    <glyph glyph-name="Ucircumflex" unicode="&#xdb;" horiz-adv-x="764" 
d="M226 759q-21 -11 -40 7.5t3 43.5l110 114q19 20 48 20h34q29 0 48 -19l122 -115q23 -23 6.5 -44.5t-47.5 -6.5l-150 73zM686 110q0 -27 7 -41t15.5 -15.5t15.5 -7t7 -19.5q0 -33 -104 -33q-51 0 -72.5 19.5t-24.5 79.5q-53 -103 -211 -103q-114 0 -182 71.5t-68 199.5
v319q0 26 -20 50t-20 34v4q0 20 23 23l157 20q48 6 48 -20l-3 -456q-1 -85 30.5 -132t85.5 -47q71 0 105.5 51t34.5 129v344q0 26 -24.5 50t-24.5 34v4q0 8 10.5 14.5t21.5 8.5l148 20q45 6 45 -20v-581z" />
    <glyph glyph-name="Udieresis" unicode="&#xdc;" horiz-adv-x="764" 
d="M247 767q-45 0 -74 26t-29 65t29 64.5t74 25.5q46 0 74 -25.5t28 -64.5q0 -40 -28 -65.5t-74 -25.5zM496 767q-45 0 -73.5 26t-28.5 65t28.5 64.5t73.5 25.5q46 0 74.5 -25.5t28.5 -64.5t-28.5 -65t-74.5 -26zM686 110q0 -27 7 -41t15.5 -15.5t15.5 -7t7 -19.5
q0 -33 -104 -33q-51 0 -72.5 19.5t-24.5 79.5q-53 -103 -211 -103q-114 0 -182 71.5t-68 199.5v319q0 26 -20 50t-20 34v4q0 20 23 23l157 20q48 6 48 -20l-3 -456q-1 -85 30.5 -132t85.5 -47q71 0 105.5 51t34.5 129v344q0 26 -24.5 50t-24.5 34v4q0 8 10.5 14.5t21.5 8.5
l148 20q45 6 45 -20v-581z" />
    <glyph glyph-name="Yacute" unicode="&#xdd;" horiz-adv-x="696" 
d="M276 774q-29 -2 -38 20q-10 26 14 40l192 103q21 11 36 4t20 -27l21 -72q5 -20 -3 -34t-30 -15zM667 710q23 0 23 -19v-4q0 -14 -26 -37t-40 -49l-173 -310v-182q0 -25 22 -49.5t22 -36.5v-4q0 -19 -24 -19h-220q-24 0 -24 19v4q0 12 20 36.5t20 49.5v166l-202 326
q-13 20 -31 36.5t-28 27t-10 22.5v4q0 19 24 19h271q24 0 24 -19v-4q0 -11 -16 -24t-26.5 -28t-0.5 -34l133 -240l132 240q11 20 0.5 35t-27 27.5t-16.5 23.5v4q0 19 24 19h149z" />
    <glyph glyph-name="Thorn" unicode="&#xde;" horiz-adv-x="657" 
d="M65 0q-24 0 -24 19v4q0 12 20 37t20 50v490q0 26 -20 50.5t-20 36.5v4q0 19 24 19h217q24 0 24 -19v-4q0 -12 -22 -36.5t-22 -50.5v-17h49q149 0 237.5 -56.5t88.5 -164.5t-85.5 -166.5t-224.5 -58.5h-65v-27q0 -25 22 -50t22 -37v-4q0 -19 -24 -19h-217zM298 207h46
q48 0 76.5 32.5t28.5 97.5q0 78 -40 127t-89 49h-22q-36 0 -36 -37v-233q0 -36 36 -36z" />
    <glyph glyph-name="germandbls" unicode="&#xdf;" horiz-adv-x="605" 
d="M425 390q73 -16 116.5 -69t43.5 -130q0 -88 -66.5 -139.5t-164.5 -51.5q-19 0 -26 12t-0.5 24t20.5 12q31 0 52 31.5t21 81.5q0 86 -31 138.5t-83 52.5q-17 0 -24 15t0 29.5t24 14.5q26 0 44.5 26t18.5 77q0 169 -77 169q-32 0 -46.5 -26.5t-14.5 -62.5v-484
q0 -25 26.5 -48.5t26.5 -38.5v-4q0 -5 -0.5 -8t-2 -5t-2 -3.5t-3.5 -2t-4 -0.5h-5.5h-5.5h-219q-23 0 -23 19v4q0 12 20 36.5t20 50.5v403q0 97 65 158t179 61q92 0 156 -54t64 -144q0 -51 -28 -88.5t-71 -55.5z" />
    <glyph glyph-name="agrave" unicode="&#xe0;" horiz-adv-x="602" 
d="M185 595q-21 5 -27 20.5t3 33.5l33 68q21 42 60 12l171 -135q21 -16 7 -41q-14 -20 -41 -13zM575 433q0 -8 -11 -19t-22 -29t-11 -42v-234q0 -25 20 -49.5t20 -36.5v-4q0 -19 -22 -19h-143q-11 0 -18.5 7t-7.5 18v9q-46 -44 -122 -44q-97 0 -166.5 66.5t-69.5 183.5
q0 109 70 179.5t167 70.5q74 0 121 -42v6q0 16 13 24t35 5l123 -18q24 -3 24 -28v-4zM298 39q27 -1 45.5 22t18.5 62v193q0 54 -27 89.5t-63 35.5q-74 0 -79 -123q-2 -47 8.5 -109t36 -115.5t60.5 -54.5z" />
    <glyph glyph-name="aacute" unicode="&#xe1;" horiz-adv-x="602" 
d="M219 546q-27 -7 -41 13q-14 24 7 42l171 134q19 14 35 10.5t25 -22.5l32 -68q10 -18 4 -33.5t-27 -20.5zM575 433q0 -8 -11 -19t-22 -29t-11 -42v-234q0 -25 20 -49.5t20 -36.5v-4q0 -19 -22 -19h-143q-11 0 -18.5 7t-7.5 18v9q-46 -44 -122 -44q-97 0 -166.5 66.5
t-69.5 183.5q0 109 70 179.5t167 70.5q74 0 121 -42v6q0 16 13 24t35 5l123 -18q24 -3 24 -28v-4zM298 39q27 -1 45.5 22t18.5 62v193q0 54 -27 89.5t-63 35.5q-74 0 -79 -123q-2 -47 8.5 -109t36 -115.5t60.5 -54.5z" />
    <glyph glyph-name="acircumflex" unicode="&#xe2;" horiz-adv-x="602" 
d="M165 544q-21 -11 -40 7t3 44l110 113q19 21 48 21h34q28 0 48 -20l122 -114q23 -23 6.5 -45t-47.5 -6l-150 73zM575 433q0 -8 -11 -19t-22 -29t-11 -42v-234q0 -25 20 -49.5t20 -36.5v-4q0 -19 -22 -19h-143q-11 0 -18.5 7t-7.5 18v9q-46 -44 -122 -44q-97 0 -166.5 66.5
t-69.5 183.5q0 109 70 179.5t167 70.5q74 0 121 -42v6q0 16 13 24t35 5l123 -18q24 -3 24 -28v-4zM298 39q27 -1 45.5 22t18.5 62v193q0 54 -27 89.5t-63 35.5q-74 0 -79 -123q-2 -47 8.5 -109t36 -115.5t60.5 -54.5z" />
    <glyph glyph-name="atilde" unicode="&#xe3;" horiz-adv-x="602" 
d="M138 584q-9 0 -13.5 6t-2.5 17q10 48 41.5 81.5t76.5 33.5q39 0 90 -23.5t69 -23.5q30 0 44 22q11 14 25 14h7q22 0 17 -23q-11 -51 -42 -84t-74 -33q-34 0 -86 25t-76 25q-22 0 -38 -19q-2 -2 -5 -6t-4.5 -5.5t-4 -3.5t-5.5 -2.5t-8 -0.5h-11zM575 433q0 -8 -11 -19
t-22 -29t-11 -42v-234q0 -25 20 -49.5t20 -36.5v-4q0 -19 -22 -19h-143q-11 0 -18.5 7t-7.5 18v9q-46 -44 -122 -44q-97 0 -166.5 66.5t-69.5 183.5q0 109 70 179.5t167 70.5q74 0 121 -42v6q0 16 13 24t35 5l123 -18q24 -3 24 -28v-4zM298 39q27 -1 45.5 22t18.5 62v193
q0 54 -27 89.5t-63 35.5q-74 0 -79 -123q-2 -47 8.5 -109t36 -115.5t60.5 -54.5z" />
    <glyph glyph-name="adieresis" unicode="&#xe4;" horiz-adv-x="602" 
d="M184 544q-45 0 -74 26t-29 65t29 64.5t74 25.5t73.5 -25.5t28.5 -64.5t-28.5 -65t-73.5 -26zM433 544q-45 0 -73.5 26t-28.5 65t28.5 64.5t73.5 25.5t74 -25.5t29 -64.5t-29 -65t-74 -26zM575 433q0 -8 -11 -19t-22 -29t-11 -42v-234q0 -25 20 -49.5t20 -36.5v-4
q0 -19 -22 -19h-143q-11 0 -18.5 7t-7.5 18v9q-46 -44 -122 -44q-97 0 -166.5 66.5t-69.5 183.5q0 109 70 179.5t167 70.5q74 0 121 -42v6q0 16 13 24t35 5l123 -18q24 -3 24 -28v-4zM298 39q27 -1 45.5 22t18.5 62v193q0 54 -27 89.5t-63 35.5q-74 0 -79 -123
q-2 -47 8.5 -109t36 -115.5t60.5 -54.5z" />
    <glyph glyph-name="aring" unicode="&#xe5;" horiz-adv-x="602" 
d="M308 532q-64 0 -106.5 31.5t-42.5 77.5q0 53 41.5 84t108.5 31q64 0 106.5 -30.5t42.5 -77.5q0 -52 -41 -84t-109 -32zM309 706q-47 0 -47 -61q0 -29 13.5 -47t33.5 -18q46 0 46 65q0 29 -13 45t-33 16zM575 433q0 -8 -11 -19t-22 -29t-11 -42v-234q0 -25 20 -49.5
t20 -36.5v-4q0 -19 -22 -19h-143q-11 0 -18.5 7t-7.5 18v9q-46 -44 -122 -44q-97 0 -166.5 66.5t-69.5 183.5q0 109 70 179.5t167 70.5q74 0 121 -42v6q0 16 13 24t35 5l123 -18q24 -3 24 -28v-4zM298 39q27 -1 45.5 22t18.5 62v193q0 54 -27 89.5t-63 35.5q-74 0 -79 -123
q-2 -47 8.5 -109t36 -115.5t60.5 -54.5z" />
    <glyph glyph-name="ae" unicode="&#xe6;" horiz-adv-x="781" 
d="M728 159q10 12 23.5 7t13.5 -21q-3 -50 -58.5 -102t-144.5 -52q-131 0 -201 97q-8 -41 -44 -69.5t-103 -28.5q-83 0 -136 39t-53 113q0 72 52 112.5t128 40.5q60 0 101 -26v4q-9 98 -22 133.5t-49 35.5q-23 0 -37 -21t-20 -46t-24.5 -46t-48.5 -21q-31 0 -50.5 18
t-19.5 47q0 58 58.5 87.5t141.5 29.5q101 0 166 -56q68 57 159 57q92 0 141.5 -42t49.5 -95q0 -42 -39 -62l-198 -111q41 -66 113 -66q59 0 101 44zM543 442q-31 0 -49 -30t-18 -75q0 -57 14 -105l93 56q26 17 26 51q0 33 -16.5 68t-49.5 35zM269 41q26 0 39.5 25t12.5 53
l-4 39q-4 43 -21 63.5t-41 20.5q-23 0 -37 -18.5t-14 -47.5q0 -57 17.5 -96t47.5 -39z" />
    <glyph glyph-name="ccedilla" unicode="&#xe7;" horiz-adv-x="508" 
d="M488 160q-2 -67 -52 -116t-140 -54l-2 -41q51 2 89 -19.5t38 -65.5t-42 -67t-104 -23q-56 0 -88 14q-22 10 -18 40q3 21 16 19q2 0 4 -1q22 -12 58 -12q22 0 36.5 9.5t14.5 27.5t-18.5 26t-40.5 8q-31 0 -26 30l12 60q-93 18 -149.5 88t-56.5 158q0 113 74 180.5
t180 68.5q89 1 151 -40.5t62 -107.5q0 -25 -17.5 -42t-55.5 -16q-34 2 -58.5 27t-35.5 54t-30 52.5t-43 23.5q-31 -1 -50.5 -33t-19.5 -79q0 -98 44.5 -157t118.5 -59q67 0 111 58q10 12 24 8.5t14 -19.5z" />
    <glyph glyph-name="egrave" unicode="&#xe8;" horiz-adv-x="499" 
d="M138 595q-21 5 -27 20.5t3 33.5l33 68q21 42 60 12l171 -135q9 -7 11 -18.5t-5 -22.5q-12 -20 -41 -13zM442 158q11 11 24.5 6.5t12.5 -20.5q-1 -23 -13.5 -48t-35.5 -49.5t-63.5 -40.5t-91.5 -16q-112 0 -182.5 70t-70.5 183q0 109 72 177.5t176 69.5q89 1 144 -39
t55 -106q0 -52 -44.5 -92t-115.5 -51q-50 -9 -100 -7q42 -81 126 -81q74 0 107 44zM249 437q-31 0 -49.5 -31t-18.5 -81q0 -41 9 -77q28 -1 50 2q68 12 68 108q-1 33 -17.5 56t-41.5 23z" />
    <glyph glyph-name="eacute" unicode="&#xe9;" horiz-adv-x="499" 
d="M172 546q-29 -7 -41 13q-14 24 6 42l172 134q37 30 60 -12l32 -68q10 -18 3.5 -33.5t-26.5 -20.5zM442 158q11 11 24.5 6.5t12.5 -20.5q-1 -23 -13.5 -48t-35.5 -49.5t-63.5 -40.5t-91.5 -16q-112 0 -182.5 70t-70.5 183q0 109 72 177.5t176 69.5q89 1 144 -39t55 -106
q0 -52 -44.5 -92t-115.5 -51q-50 -9 -100 -7q42 -81 126 -81q74 0 107 44zM249 437q-31 0 -49.5 -31t-18.5 -81q0 -41 9 -77q28 -1 50 2q68 12 68 108q-1 33 -17.5 56t-41.5 23z" />
    <glyph glyph-name="ecircumflex" unicode="&#xea;" horiz-adv-x="499" 
d="M118 544q-21 -11 -40.5 7t3.5 44l110 113q19 21 47 21h35q27 0 48 -20l122 -114q23 -23 6 -45t-48 -6l-149 73zM442 158q11 11 24.5 6.5t12.5 -20.5q-1 -23 -13.5 -48t-35.5 -49.5t-63.5 -40.5t-91.5 -16q-112 0 -182.5 70t-70.5 183q0 109 72 177.5t176 69.5
q89 1 144 -39t55 -106q0 -52 -44.5 -92t-115.5 -51q-50 -9 -100 -7q42 -81 126 -81q74 0 107 44zM249 437q-31 0 -49.5 -31t-18.5 -81q0 -41 9 -77q28 -1 50 2q68 12 68 108q-1 33 -17.5 56t-41.5 23z" />
    <glyph glyph-name="edieresis" unicode="&#xeb;" horiz-adv-x="499" 
d="M137 544q-46 0 -75 26t-29 65t29 64.5t75 25.5q45 0 73 -25.5t28 -64.5t-28 -65t-73 -26zM386 544q-46 0 -74 26t-28 65t28 64.5t74 25.5q45 0 74 -25.5t29 -64.5t-29 -65t-74 -26zM442 158q11 11 24.5 6.5t12.5 -20.5q-1 -23 -13.5 -48t-35.5 -49.5t-63.5 -40.5
t-91.5 -16q-112 0 -182.5 70t-70.5 183q0 109 72 177.5t176 69.5q89 1 144 -39t55 -106q0 -52 -44.5 -92t-115.5 -51q-50 -9 -100 -7q42 -81 126 -81q74 0 107 44zM249 437q-31 0 -49.5 -31t-18.5 -81q0 -41 9 -77q28 -1 50 2q68 12 68 108q-1 33 -17.5 56t-41.5 23z" />
    <glyph glyph-name="igrave" unicode="&#xec;" horiz-adv-x="310" 
d="M244 540l-206 55q-20 5 -26.5 20.5t3.5 33.5l32 68q9 19 25 22.5t35 -10.5l171 -135q9 -7 11.5 -18.5t-4.5 -22.5q-12 -20 -41 -13zM52 0q-24 0 -24 19v4q0 12 20 37t20 50v190q0 26 -20 50.5t-20 33.5v4q0 12 23 23l151 74q21 9 33 2t12 -23v-354q0 -25 22.5 -50
t22.5 -37v-4q0 -19 -25 -19h-215z" />
    <glyph glyph-name="iacute" unicode="&#xed;" horiz-adv-x="310" 
d="M73 546q-29 -7 -41 13q-14 24 6 42l172 134q38 30 59 -12l33 -68q10 -18 3.5 -33.5t-27.5 -20.5zM52 0q-24 0 -24 19v4q0 12 20 37t20 50v190q0 26 -20 50.5t-20 33.5v4q0 12 23 23l151 74q21 9 33 2t12 -23v-354q0 -25 22.5 -50t22.5 -37v-4q0 -19 -25 -19h-215z" />
    <glyph glyph-name="icircumflex" unicode="&#xee;" horiz-adv-x="310" 
d="M343 595q24 -23 7 -45t-48 -6l-150 73l-133 -73q-21 -11 -40.5 7t3.5 44l110 113q17 21 47 21h35q27 0 47 -20zM247 464v-354q0 -25 22.5 -50t22.5 -37v-4q0 -19 -25 -19h-215q-24 0 -24 19v4q0 12 20 37t20 50v190q0 26 -20 50.5t-20 33.5v4q0 12 23 23l151 74
q21 9 33 2t12 -23z" />
    <glyph glyph-name="idieresis" unicode="&#xef;" horiz-adv-x="310" 
d="M37 544q-45 0 -74 26t-29 65t29 64.5t74 25.5q46 0 74 -25.5t28 -64.5t-28 -65t-74 -26zM286 544q-45 0 -73.5 26t-28.5 65t28.5 64.5t73.5 25.5q46 0 74.5 -25.5t28.5 -64.5t-28.5 -65t-74.5 -26zM52 0q-24 0 -24 19v4q0 12 20 37t20 50v190q0 26 -20 50.5t-20 33.5v4
q0 12 23 23l151 74q21 9 33 2t12 -23v-354q0 -25 22.5 -50t22.5 -37v-4q0 -19 -25 -19h-215z" />
    <glyph glyph-name="eth" unicode="&#xf0;" horiz-adv-x="590" 
d="M421 624q145 -152 145 -376q0 -119 -71.5 -188.5t-198.5 -69.5q-114 0 -194 71t-80 180q0 110 64 179.5t160 69.5q64 0 109 -39q-20 67 -69 123l-113 -41q-18 -7 -24 9l-11 23q-8 19 13 28l88 32q-51 49 -77 73q-21 23 -12.5 41.5t27.5 17.5q92 -9 191 -85l108 39
q17 6 24 -8l11 -26q4 -8 0 -15t-14 -10zM318 39q65 0 65 121v4q-11 144 -44.5 210.5t-73.5 66.5q-66 0 -66 -125q0 -35 7.5 -80.5t21.5 -90.5t38 -75.5t52 -30.5z" />
    <glyph glyph-name="ntilde" unicode="&#xf1;" horiz-adv-x="616" 
d="M164 584q-8 0 -12.5 6t-2.5 17q10 48 41.5 81.5t76.5 33.5q39 0 89.5 -23.5t68.5 -23.5q29 0 45 22q11 14 25 14h7q21 0 16 -23q-11 -51 -41.5 -84t-73.5 -33q-34 0 -86.5 25t-75.5 25t-39 -19q-2 -3 -5 -6.5t-4 -5t-3.5 -3.5t-5.5 -2.5t-8 -0.5h-12zM568 109
q2 -25 19 -49.5t17 -37.5v-4q0 -19 -24 -19h-200q-24 0 -24 19v4q0 12 19 37t17 50l-10 179q-4 74 -19.5 105t-49.5 31q-32 0 -48.5 -26t-16.5 -71v-218q0 -25 22 -50t22 -37v-4q0 -19 -24 -19h-216q-24 0 -24 19v4q0 12 22 37t22 50v197q0 21 -13 35.5t-26.5 25t-13.5 22.5
v3q0 13 24 25l140 69q19 8 28.5 0.5t9.5 -24.5v-47q42 75 143 75q75 0 129 -49t62 -159z" />
    <glyph glyph-name="ograve" unicode="&#xf2;" horiz-adv-x="587" 
d="M376 540l-206 55q-21 5 -27 20.5t3 33.5l33 68q21 42 60 12l171 -135q9 -7 11.5 -18.5t-4.5 -22.5q-14 -20 -41 -13zM298 -10q-116 0 -196.5 71.5t-80.5 179.5t80 178.5t190 70.5q114 0 194 -71t80 -180q0 -108 -78 -178.5t-189 -70.5zM319 39q64 0 64 123
q0 45 -12.5 107t-42 117t-65.5 55q-35 0 -50 -31t-15 -94q0 -33 8 -78t22 -90.5t38.5 -77t52.5 -31.5z" />
    <glyph glyph-name="oacute" unicode="&#xf3;" horiz-adv-x="587" 
d="M204 546q-27 -7 -41 13q-14 24 7 42l171 134q39 30 60 -12l33 -68q9 -18 3 -33.5t-27 -20.5zM298 -10q-116 0 -196.5 71.5t-80.5 179.5t80 178.5t190 70.5q114 0 194 -71t80 -180q0 -108 -78 -178.5t-189 -70.5zM319 39q64 0 64 123q0 45 -12.5 107t-42 117t-65.5 55
q-35 0 -50 -31t-15 -94q0 -33 8 -78t22 -90.5t38.5 -77t52.5 -31.5z" />
    <glyph glyph-name="ocircumflex" unicode="&#xf4;" horiz-adv-x="587" 
d="M150 544q-21 -11 -40 7t3 44l110 113q19 21 48 21h34q28 0 48 -20l122 -114q23 -23 6.5 -45t-47.5 -6l-150 73zM291 490q114 0 194 -71t80 -180q0 -108 -78 -178.5t-189 -70.5q-116 0 -196.5 71.5t-80.5 179.5t80 178.5t190 70.5zM319 39q64 0 64 123q0 45 -12.5 107
t-42 117t-65.5 55q-35 0 -50 -31t-15 -94q0 -33 8 -78t22 -90.5t38.5 -77t52.5 -31.5z" />
    <glyph glyph-name="otilde" unicode="&#xf5;" horiz-adv-x="587" 
d="M225 722q39 0 89.5 -23.5t68.5 -23.5q31 0 45 22q11 14 25 14h7q22 0 17 -23q-12 -51 -42.5 -84t-73.5 -33q-34 0 -86.5 25t-75.5 25t-39 -19q-1 -2 -3.5 -5.5t-3.5 -4.5l-3 -3t-4 -3t-5 -1.5t-7 -0.5h-11q-9 0 -13.5 6t-2.5 17q10 48 41.5 81.5t76.5 33.5zM298 -10
q-116 0 -196.5 71.5t-80.5 179.5t80 178.5t190 70.5q114 0 194 -71t80 -180q0 -108 -78 -178.5t-189 -70.5zM319 39q64 0 64 123q0 45 -12.5 107t-42 117t-65.5 55q-35 0 -50 -31t-15 -94q0 -33 8 -78t22 -90.5t38.5 -77t52.5 -31.5z" />
    <glyph glyph-name="odieresis" unicode="&#xf6;" horiz-adv-x="587" 
d="M169 544q-46 0 -74.5 26t-28.5 65t28.5 64.5t74.5 25.5q45 0 73.5 -25.5t28.5 -64.5t-28.5 -65t-73.5 -26zM418 544q-45 0 -73.5 26t-28.5 65t28.5 64.5t73.5 25.5t74 -25.5t29 -64.5t-29 -65t-74 -26zM298 -10q-116 0 -196.5 71.5t-80.5 179.5t80 178.5t190 70.5
q114 0 194 -71t80 -180q0 -108 -78 -178.5t-189 -70.5zM319 39q64 0 64 123q0 45 -12.5 107t-42 117t-65.5 55q-35 0 -50 -31t-15 -94q0 -33 8 -78t22 -90.5t38.5 -77t52.5 -31.5z" />
    <glyph glyph-name="divide" unicode="&#xf7;" 
d="M299 413q-47 0 -76 26.5t-29 66.5q0 39 29.5 65.5t75.5 26.5t75 -26.5t29 -65.5q0 -40 -29 -66.5t-75 -26.5zM102 237q-23 0 -23 18v75q0 8 6.5 13.5t16.5 5.5h397q10 0 16.5 -5.5t6.5 -13.5v-75q0 -18 -23 -18h-397zM299 -10q-47 0 -76 26.5t-29 66.5q0 39 29.5 65.5
t75.5 26.5t75 -26.5t29 -65.5q0 -40 -29 -66.5t-75 -26.5z" />
    <glyph glyph-name="oslash" unicode="&#xf8;" horiz-adv-x="591" 
d="M505 403q63 -69 63 -164q0 -108 -78 -178.5t-190 -70.5q-96 0 -170 52l-54 -52q-11 -11 -22 0l-25 23q-11 12 2 27l49 47q-56 67 -56 154q0 108 79.5 178.5t190.5 70.5q89 0 159 -45l54 52q17 15 29 2l22 -21q14 -12 -2 -26zM200 316q0 -44 12 -102l138 132
q-36 95 -84 95q-66 0 -66 -125zM322 39q64 0 64 123q0 48 -15 112l-138 -133q36 -102 89 -102z" />
    <glyph glyph-name="ugrave" unicode="&#xf9;" horiz-adv-x="596" 
d="M178 595q-21 5 -27 20.5t3 33.5l33 68q21 42 60 12l171 -135q9 -7 11.5 -18.5t-4.5 -22.5q-14 -20 -41 -13zM536 110q0 -27 6.5 -41t15 -15.5t15 -7.5t6.5 -19q0 -19 -25.5 -26t-77.5 -7q-47 0 -68.5 13t-25.5 45q-40 -62 -141 -62q-80 0 -133.5 52.5t-53.5 144.5v167
q0 26 -20 50t-20 34v4q0 20 23 23l149 20q47 6 47 -20l-3 -296q-1 -60 14.5 -86.5t49.5 -26.5q28 0 47 27.5t19 72.5v198q0 26 -20 50t-20 34v4q0 20 23 23l149 20q44 6 44 -20v-355z" />
    <glyph glyph-name="uacute" unicode="&#xfa;" horiz-adv-x="596" 
d="M212 546q-29 -7 -41 13q-14 24 7 42l171 134q19 14 35 10.5t25 -22.5l32 -68q10 -18 3.5 -33.5t-26.5 -20.5zM536 110q0 -27 6.5 -41t15 -15.5t15 -7.5t6.5 -19q0 -19 -25.5 -26t-77.5 -7q-47 0 -68.5 13t-25.5 45q-40 -62 -141 -62q-80 0 -133.5 52.5t-53.5 144.5v167
q0 26 -20 50t-20 34v4q0 20 23 23l149 20q47 6 47 -20l-3 -296q-1 -60 14.5 -86.5t49.5 -26.5q28 0 47 27.5t19 72.5v198q0 26 -20 50t-20 34v4q0 20 23 23l149 20q44 6 44 -20v-355z" />
    <glyph glyph-name="ucircumflex" unicode="&#xfb;" horiz-adv-x="596" 
d="M158 544q-21 -11 -40 7t3 44l110 113q19 21 48 21h34q28 0 48 -20l122 -114q23 -23 6.5 -45t-47.5 -6l-150 73zM536 110q0 -27 6.5 -41t15 -15.5t15 -7.5t6.5 -19q0 -19 -25.5 -26t-77.5 -7q-47 0 -68.5 13t-25.5 45q-40 -62 -141 -62q-80 0 -133.5 52.5t-53.5 144.5v167
q0 26 -20 50t-20 34v4q0 20 23 23l149 20q47 6 47 -20l-3 -296q-1 -60 14.5 -86.5t49.5 -26.5q28 0 47 27.5t19 72.5v198q0 26 -20 50t-20 34v4q0 20 23 23l149 20q44 6 44 -20v-355z" />
    <glyph glyph-name="udieresis" unicode="&#xfc;" horiz-adv-x="596" 
d="M177 544q-46 0 -74.5 26t-28.5 65t28.5 64.5t74.5 25.5q45 0 73.5 -25.5t28.5 -64.5t-28.5 -65t-73.5 -26zM426 544q-45 0 -73.5 26t-28.5 65t28.5 64.5t73.5 25.5t74 -25.5t29 -64.5t-29 -65t-74 -26zM536 110q0 -27 6.5 -41t15 -15.5t15 -7.5t6.5 -19q0 -19 -25.5 -26
t-77.5 -7q-47 0 -68.5 13t-25.5 45q-40 -62 -141 -62q-80 0 -133.5 52.5t-53.5 144.5v167q0 26 -20 50t-20 34v4q0 20 23 23l149 20q47 6 47 -20l-3 -296q-1 -60 14.5 -86.5t49.5 -26.5q28 0 47 27.5t19 72.5v198q0 26 -20 50t-20 34v4q0 20 23 23l149 20q44 6 44 -20v-355z
" />
    <glyph glyph-name="yacute" unicode="&#xfd;" horiz-adv-x="571" 
d="M215 546q-29 -7 -41 13q-14 24 7 42l171 134q19 14 35 10.5t25 -22.5l32 -68q10 -18 3.5 -33.5t-26.5 -20.5zM485 486q44 6 44 -21v-402q0 -127 -78 -195t-195 -68q-89 0 -154 39t-65 103q0 28 19 47t52 19q28 0 47 -16.5t29.5 -39.5t20 -46.5t27 -40t43.5 -17.5
q79 -2 79 187v1q-44 -36 -120 -36q-74 0 -127 52t-53 135v167q0 26 -20 50t-20 34v4q0 20 23 23l149 20q47 6 47 -20l-3 -296q-1 -103 57 -103q28 0 47.5 26t19.5 65v197q0 26 -20.5 50t-20.5 34v4q0 20 23 23z" />
    <glyph glyph-name="thorn" unicode="&#xfe;" horiz-adv-x="580" 
d="M321 490q93 0 164.5 -63.5t71.5 -178.5t-69 -186.5t-166 -71.5q-60 0 -102 28v-120q0 -25 22 -49.5t22 -36.5v-4q0 -19 -24 -19h-211q-24 0 -24 19v4q0 12 20 36.5t20 49.5v668q0 24 -24.5 44.5t-24.5 33.5v5q0 17 23 28l158 76q23 9 33 3t10 -23v-272q40 29 101 29z
M306 39q76 0 76 126q0 60 -9.5 120t-34 108t-58.5 48q-24 0 -40 -17t-20 -46v-219q0 -46 26.5 -83t59.5 -37z" />
    <glyph glyph-name="ydieresis" unicode="&#xff;" horiz-adv-x="571" 
d="M180 544q-46 0 -74.5 26t-28.5 65t28.5 64.5t74.5 25.5q45 0 73.5 -25.5t28.5 -64.5t-28.5 -65t-73.5 -26zM429 544q-45 0 -73.5 26t-28.5 65t28.5 64.5t73.5 25.5t74 -25.5t29 -64.5t-29 -65t-74 -26zM485 486q44 6 44 -21v-402q0 -127 -78 -195t-195 -68q-89 0 -154 39
t-65 103q0 28 19 47t52 19q28 0 47 -16.5t29.5 -39.5t20 -46.5t27 -40t43.5 -17.5q79 -2 79 187v1q-44 -36 -120 -36q-74 0 -127 52t-53 135v167q0 26 -20 50t-20 34v4q0 20 23 23l149 20q47 6 47 -20l-3 -296q-1 -103 57 -103q28 0 47.5 26t19.5 65v197q0 26 -20.5 50
t-20.5 34v4q0 20 23 23z" />
    <glyph glyph-name="Amacron" unicode="&#x100;" horiz-adv-x="711" 
d="M207 790q-24 0 -24 24v61q0 23 24 23h283q24 0 24 -23v-61q0 -24 -24 -24h-283zM25 0q-24 0 -24 19v4q0 13 23.5 36t34.5 50l187 484q9 22 -15 54t-24 40v4q0 19 23 19h230q23 0 23 -19v-4q0 -7 -8.5 -17.5t-17.5 -20t-14 -24t2 -29.5l210 -487q11 -27 34.5 -49.5
t23.5 -36.5v-4q0 -19 -24 -19h-256q-24 0 -24 19v4q0 11 14.5 23.5t25 27.5t3.5 35l-23 62h-253l-22 -62q-7 -20 3.5 -35t25 -27.5t14.5 -23.5v-4q0 -19 -24 -19h-148zM203 246h201l-101 277z" />
    <glyph glyph-name="amacron" unicode="&#x101;" horiz-adv-x="602" 
d="M167 577q-24 0 -24 24v60q0 24 24 24h283q24 0 24 -24v-60q0 -24 -24 -24h-283zM575 433q0 -8 -11 -19t-22 -29t-11 -42v-234q0 -25 20 -49.5t20 -36.5v-4q0 -19 -22 -19h-143q-11 0 -18.5 7t-7.5 18v9q-46 -44 -122 -44q-97 0 -166.5 66.5t-69.5 183.5q0 109 70 179.5
t167 70.5q74 0 121 -42v6q0 16 13 24t35 5l123 -18q24 -3 24 -28v-4zM298 39q27 -1 45.5 22t18.5 62v193q0 54 -27 89.5t-63 35.5q-74 0 -79 -123q-2 -47 8.5 -109t36 -115.5t60.5 -54.5z" />
    <glyph glyph-name="Abreve" unicode="&#x102;" horiz-adv-x="711" 
d="M348 759q-72 0 -119.5 39t-55.5 98q-3 23 23 30t36 -9q12 -24 44.5 -38.5t71.5 -14.5q40 0 72.5 14.5t44.5 38.5q5 8 20 8.5t27.5 -8t11.5 -21.5q-8 -59 -55 -98t-121 -39zM25 0q-24 0 -24 19v4q0 13 23.5 36t34.5 50l187 484q9 22 -15 54t-24 40v4q0 19 23 19h230
q23 0 23 -19v-4q0 -7 -8.5 -17.5t-17.5 -20t-14 -24t2 -29.5l210 -487q11 -27 34.5 -49.5t23.5 -36.5v-4q0 -19 -24 -19h-256q-24 0 -24 19v4q0 11 14.5 23.5t25 27.5t3.5 35l-23 62h-253l-22 -62q-7 -20 3.5 -35t25 -27.5t14.5 -23.5v-4q0 -19 -24 -19h-148zM203 246h201
l-101 277z" />
    <glyph glyph-name="abreve" unicode="&#x103;" horiz-adv-x="602" 
d="M308 546q-72 0 -120 39t-56 97q-3 24 23.5 30.5t35.5 -9.5q13 -24 45.5 -38t71.5 -14q40 0 72 14t45 38q8 14 34 7t24 -28q-7 -58 -54.5 -97t-120.5 -39zM575 433q0 -8 -11 -19t-22 -29t-11 -42v-234q0 -25 20 -49.5t20 -36.5v-4q0 -19 -22 -19h-143q-11 0 -18.5 7
t-7.5 18v9q-46 -44 -122 -44q-97 0 -166.5 66.5t-69.5 183.5q0 109 70 179.5t167 70.5q74 0 121 -42v6q0 16 13 24t35 5l123 -18q24 -3 24 -28v-4zM298 39q27 -1 45.5 22t18.5 62v193q0 54 -27 89.5t-63 35.5q-74 0 -79 -123q-2 -47 8.5 -109t36 -115.5t60.5 -54.5z" />
    <glyph glyph-name="Aogonek" unicode="&#x104;" horiz-adv-x="711" 
d="M655 109q11 -27 34.5 -49.5t23.5 -36.5v-4q0 -19 -24 -19h-76q-52 -64 -52 -116q-1 -46 28 -46q4 0 18 4q21 7 28 -16q8 -27 -13 -44q-4 -3 -9 -5q-18 -8 -55 -8q-49 0 -85 22t-36 70q0 78 112 139h-116q-24 0 -24 19v4q0 11 14.5 23.5t25 27.5t3.5 35l-23 62h-253
l-22 -62q-7 -20 3.5 -35t25 -27.5t14.5 -23.5v-4q0 -19 -24 -19h-148q-24 0 -24 19v4q0 13 23.5 36t34.5 50l187 484q9 22 -15 54t-24 40v4q0 19 23 19h230q23 0 23 -19v-4q0 -7 -8.5 -17.5t-17.5 -20t-14 -24t2 -29.5zM203 246h201l-101 277z" />
    <glyph glyph-name="aogonek" unicode="&#x105;" horiz-adv-x="602" 
d="M575 433q0 -8 -11 -19t-22 -29t-11 -42v-234q0 -25 20 -49.5t20 -36.5v-4q0 -19 -22 -19h-43q-44 -60 -44 -107q-1 -45 29 -45q9 0 17 4q21 7 28 -17q8 -27 -12 -43q-4 -3 -9 -5q-20 -8 -55 -8q-49 0 -85.5 22t-36.5 70q0 72 95 129h-27q-11 0 -18.5 7t-7.5 18v9
q-46 -44 -122 -44q-97 0 -166.5 66.5t-69.5 183.5q0 109 70 179.5t167 70.5q74 0 121 -42v6q0 16 13 24t35 5l123 -18q24 -3 24 -28v-4zM298 39q27 -1 45.5 22t18.5 62v193q0 54 -27 89.5t-63 35.5q-74 0 -79 -123q-2 -47 8.5 -109t36 -115.5t60.5 -54.5z" />
    <glyph glyph-name="Cacute" unicode="&#x106;" horiz-adv-x="672" 
d="M254 774q-29 -2 -38 20q-10 26 14 40l192 103q21 11 36 4t20 -27l21 -72q5 -20 -3 -34t-30 -15zM367 -10q-146 0 -244.5 112t-98.5 262q0 154 92 254.5t241 100.5q118 0 204 -56.5t86 -134.5q0 -35 -22.5 -57t-60.5 -22q-34 0 -61 20.5t-44.5 49.5t-35.5 58.5t-43.5 50
t-58.5 20.5q-50 0 -85.5 -47t-35.5 -127q0 -141 68 -231.5t157 -90.5q33 0 60.5 10t49 28.5t33 32.5t26.5 35q14 17 35 11.5t20 -29.5q-4 -104 -76.5 -177t-205.5 -73z" />
    <glyph glyph-name="cacute" unicode="&#x107;" horiz-adv-x="508" 
d="M167 546q-27 -7 -41 13q-13 24 7 42l172 134q38 30 59 -12l33 -68q10 -18 3.5 -33.5t-27.5 -20.5zM279 -10q-114 0 -187 74.5t-73 176.5q0 113 74 180.5t180 68.5q89 1 151 -40.5t62 -107.5q0 -25 -17.5 -42t-55.5 -16q-34 2 -58.5 27t-35.5 54t-30 52.5t-43 23.5
q-31 -1 -50.5 -33t-19.5 -79q0 -98 44.5 -157t118.5 -59q67 0 111 58q10 12 24 8.5t14 -19.5q-2 -70 -57 -120t-152 -50z" />
    <glyph glyph-name="Cdotaccent" unicode="&#x10a;" horiz-adv-x="672" 
d="M342 753q-47 0 -76.5 26.5t-29.5 66.5q0 39 29.5 65.5t76.5 26.5q46 0 75 -26t29 -66t-29 -66.5t-75 -26.5zM367 -10q-146 0 -244.5 112t-98.5 262q0 154 92 254.5t241 100.5q118 0 204 -56.5t86 -134.5q0 -35 -22.5 -57t-60.5 -22q-34 0 -61 20.5t-44.5 49.5t-35.5 58.5
t-43.5 50t-58.5 20.5q-50 0 -85.5 -47t-35.5 -127q0 -141 68 -231.5t157 -90.5q33 0 60.5 10t49 28.5t33 32.5t26.5 35q14 17 35 11.5t20 -29.5q-4 -104 -76.5 -177t-205.5 -73z" />
    <glyph glyph-name="cdotaccent" unicode="&#x10b;" horiz-adv-x="508" 
d="M255 539q-50 0 -82 28.5t-32 71.5t32 71.5t82 28.5q51 0 82.5 -28.5t31.5 -71.5t-31.5 -71.5t-82.5 -28.5zM279 -10q-114 0 -187 74.5t-73 176.5q0 113 74 180.5t180 68.5q89 1 151 -40.5t62 -107.5q0 -25 -17.5 -42t-55.5 -16q-34 2 -58.5 27t-35.5 54t-30 52.5
t-43 23.5q-31 -1 -50.5 -33t-19.5 -79q0 -98 44.5 -157t118.5 -59q67 0 111 58q10 12 24 8.5t14 -19.5q-2 -70 -57 -120t-152 -50z" />
    <glyph glyph-name="Ccaron" unicode="&#x10c;" horiz-adv-x="672" 
d="M288 769l-107 104q-15 15 2 32t34 9l143 -69l140 69q18 9 34 -9.5t2 -31.5l-114 -104q-19 -19 -47 -19h-40q-27 0 -47 19zM594 258q14 17 35 11.5t20 -29.5q-4 -104 -76.5 -177t-205.5 -73q-146 0 -244.5 112t-98.5 262q0 154 92 254.5t241 100.5q118 0 204 -56.5
t86 -134.5q0 -35 -22.5 -57t-60.5 -22q-34 0 -61 20.5t-44.5 49.5t-35.5 58.5t-43.5 50t-58.5 20.5q-50 0 -85.5 -47t-35.5 -127q0 -141 68 -231.5t157 -90.5q33 0 60.5 10t49 28.5t33 32.5t26.5 35z" />
    <glyph glyph-name="ccaron" unicode="&#x10d;" horiz-adv-x="508" 
d="M186 564l-107 112q-14 16 3 33.5t34 9.5l143 -74l140 74q17 9 33.5 -10.5t2.5 -32.5l-114 -113q-20 -19 -47 -19h-40q-28 0 -48 20zM450 171q10 12 24 8.5t14 -19.5q-2 -70 -57 -120t-152 -50q-114 0 -187 74.5t-73 176.5q0 113 74 180.5t180 68.5q89 1 151 -40.5
t62 -107.5q0 -25 -17.5 -42t-55.5 -16q-34 2 -58.5 27t-35.5 54t-30 52.5t-43 23.5q-31 -1 -50.5 -33t-19.5 -79q0 -98 44.5 -157t118.5 -59q67 0 111 58z" />
    <glyph glyph-name="Dcaron" unicode="&#x10e;" horiz-adv-x="770" 
d="M284 767l-107 104q-15 15 2 32t34 9l143 -69l140 69q18 9 34 -9.5t2 -31.5l-113 -105q-21 -18 -48 -18h-40q-27 0 -47 19zM301 710q209 0 325.5 -99t116.5 -260q0 -157 -107.5 -254t-284.5 -97h-286q-24 0 -24 19v4q0 12 20 36.5t20 49.5v492q0 25 -20 49.5t-20 36.5v4
q0 19 24 19h236zM387 70q74 0 120 51t46 146q0 97 -30 182.5t-85 138t-122 52.5h-11q-45 0 -45 -48v-419q0 -49 23 -76t64 -27h40z" />
    <glyph glyph-name="dcaron" unicode="&#x10f;" horiz-adv-x="608" 
d="M717 801q13 0 21 -8t8 -21q0 -76 -34.5 -137t-85.5 -93q-22 -12 -40 -1l-11 8q-19 13 -2 33q50 68 50 190q0 11 7.5 20t17.5 9h69zM532 729v-620q0 -25 20 -49.5t20 -36.5v-4q0 -19 -23 -19h-143q-26 0 -26 25v9q-47 -44 -122 -44q-97 0 -166.5 66.5t-69.5 183.5
q0 109 70 179.5t167 70.5q61 0 103 -28v133q0 20 -13 34.5t-26.5 25t-13.5 22.5v3q0 19 23 26l156 47q44 14 44 -24zM298 39q27 -1 45.5 22t18.5 62v193q0 48 -27.5 86.5t-62.5 38.5q-74 0 -79 -123q-2 -47 8.5 -109t36 -115.5t60.5 -54.5z" />
    <glyph glyph-name="Dcroat" unicode="&#x110;" horiz-adv-x="773" 
d="M304 710q209 0 325.5 -99t116.5 -260q0 -157 -107.5 -254t-284.5 -97h-286q-24 0 -24 19v4q0 12 20 36.5t20 49.5v221h-44q-17 0 -17 16v34q0 17 17 17h44v204q0 25 -20 49.5t-20 36.5v4q0 19 24 19h236zM390 70q74 0 120 51t46 146q0 97 -30 182.5t-85 138t-122 52.5
h-11q-45 0 -45 -48v-195h95q18 0 18 -17v-30q0 -20 -18 -20h-95v-157q0 -49 23 -76t64 -27h40z" />
    <glyph glyph-name="dcroat" unicode="&#x111;" horiz-adv-x="590" 
d="M592 591q18 0 18 -17v-30q0 -20 -18 -20h-60v-415q0 -25 20 -49.5t20 -36.5v-4q0 -19 -23 -19h-143q-26 0 -26 25v9q-47 -44 -122 -44q-97 0 -166.5 66.5t-69.5 183.5q0 109 70 179.5t167 70.5q61 0 103 -28v62h-88q-17 0 -17 16v34q0 17 17 17h88v4q0 20 -13 34.5
t-26.5 25t-13.5 22.5v3q0 19 23 26l156 47q44 14 44 -24v-138h60zM298 39q27 -1 45.5 22t18.5 62v193q0 48 -27.5 86.5t-62.5 38.5q-74 0 -79 -123q-2 -47 8.5 -109t36 -115.5t60.5 -54.5z" />
    <glyph glyph-name="Emacron" unicode="&#x112;" horiz-adv-x="622" 
d="M165 790q-24 0 -24 24v61q0 23 24 23h283q24 0 24 -23v-61q0 -24 -24 -24h-283zM65 0q-24 0 -24 19v4q0 12 20 36.5t20 50.5v490q0 26 -20 50.5t-20 36.5v4q0 19 23 19h458q16 0 23.5 -7t10.5 -24l24 -126q2 -13 -5 -21t-20 -8h-5q-19 0 -38.5 18.5t-34 40t-37 40
t-46.5 18.5h-88q-45 0 -45 -49v-196h105q18 0 32 12.5t21 27.5t16.5 27.5t18.5 12.5h8q20 0 20 -23v-180q0 -23 -20 -23h-8q-9 0 -18.5 12t-16.5 26t-21 26t-32 12h-105v-184q0 -30 14 -51.5t46 -21.5h105q24 0 44.5 19.5t33.5 42.5t31.5 42.5t38.5 19.5h9q11 0 17 -9.5
t4 -20.5l-22 -131q-3 -17 -10.5 -24.5t-24.5 -7.5h-482z" />
    <glyph glyph-name="emacron" unicode="&#x113;" horiz-adv-x="499" 
d="M120 577q-24 0 -24 24v60q0 24 24 24h282q25 0 25 -24v-60q0 -24 -25 -24h-282zM442 158q11 11 24.5 6.5t12.5 -20.5q-1 -23 -13.5 -48t-35.5 -49.5t-63.5 -40.5t-91.5 -16q-112 0 -182.5 70t-70.5 183q0 109 72 177.5t176 69.5q89 1 144 -39t55 -106q0 -52 -44.5 -92
t-115.5 -51q-50 -9 -100 -7q42 -81 126 -81q74 0 107 44zM249 437q-31 0 -49.5 -31t-18.5 -81q0 -41 9 -77q28 -1 50 2q68 12 68 108q-1 33 -17.5 56t-41.5 23z" />
    <glyph glyph-name="Edotaccent" unicode="&#x116;" horiz-adv-x="622" 
d="M315 753q-47 0 -76.5 26.5t-29.5 66.5t29.5 66t76.5 26q46 0 75 -26t29 -66t-29 -66.5t-75 -26.5zM65 0q-24 0 -24 19v4q0 12 20 36.5t20 50.5v490q0 26 -20 50.5t-20 36.5v4q0 19 23 19h458q16 0 23.5 -7t10.5 -24l24 -126q2 -13 -5 -21t-20 -8h-5q-19 0 -38.5 18.5
t-34 40t-37 40t-46.5 18.5h-88q-45 0 -45 -49v-196h105q18 0 32 12.5t21 27.5t16.5 27.5t18.5 12.5h8q20 0 20 -23v-180q0 -23 -20 -23h-8q-9 0 -18.5 12t-16.5 26t-21 26t-32 12h-105v-184q0 -30 14 -51.5t46 -21.5h105q24 0 44.5 19.5t33.5 42.5t31.5 42.5t38.5 19.5h9
q11 0 17 -9.5t4 -20.5l-22 -131q-3 -17 -10.5 -24.5t-24.5 -7.5h-482z" />
    <glyph glyph-name="edotaccent" unicode="&#x117;" horiz-adv-x="499" 
d="M260 539q-51 0 -83 28.5t-32 71.5t32 71.5t83 28.5q50 0 82 -28.5t32 -71.5t-32 -71.5t-82 -28.5zM442 158q11 11 24.5 6.5t12.5 -20.5q-1 -23 -13.5 -48t-35.5 -49.5t-63.5 -40.5t-91.5 -16q-112 0 -182.5 70t-70.5 183q0 109 72 177.5t176 69.5q89 1 144 -39t55 -106
q0 -52 -44.5 -92t-115.5 -51q-50 -9 -100 -7q42 -81 126 -81q74 0 107 44zM249 437q-31 0 -49.5 -31t-18.5 -81q0 -41 9 -77q28 -1 50 2q68 12 68 108q-1 33 -17.5 56t-41.5 23z" />
    <glyph glyph-name="Eogonek" unicode="&#x118;" horiz-adv-x="622" 
d="M582 32q-3 -20 -14 -27q-51 -66 -51 -115q0 -45 29 -45q8 0 18 3q21 7 28 -17q7 -27 -14 -43l-8 -4q-18 -9 -55 -9q-49 0 -85 22t-36 70q0 76 101 133h-430q-24 0 -24 19v4q0 12 20 36.5t20 50.5v490q0 26 -20 50.5t-20 36.5v4q0 19 23 19h458q16 0 23.5 -7t10.5 -24
l24 -126q2 -13 -5 -21t-20 -8h-5q-19 0 -38.5 18.5t-34 40t-37 40t-46.5 18.5h-88q-45 0 -45 -49v-196h105q18 0 32 12.5t21 27.5t16.5 27.5t18.5 12.5h8q20 0 20 -23v-180q0 -23 -20 -23h-8q-9 0 -18.5 12t-16.5 26t-21 26t-32 12h-105v-184q0 -30 14 -51.5t46 -21.5h105
q24 0 44.5 19.5t33.5 42.5t31.5 42.5t38.5 19.5h9q11 0 17 -9.5t4 -20.5z" />
    <glyph glyph-name="eogonek" unicode="&#x119;" horiz-adv-x="499" 
d="M442 158q11 11 24.5 6.5t12.5 -20.5q-2 -31 -24 -66.5t-63 -59.5q-49 -62 -49 -113q-1 -45 29 -45q4 0 18 4q20 7 27 -16q8 -27 -12 -44q-4 -3 -9 -5q-20 -8 -55 -8q-49 0 -85 22t-36 70q0 60 62 107h-7q-112 0 -182.5 70t-70.5 183q0 109 72 177.5t176 69.5
q89 1 144 -39t55 -106q0 -52 -44.5 -92t-115.5 -51q-50 -9 -100 -7q42 -81 126 -81q74 0 107 44zM249 437q-31 0 -49.5 -31t-18.5 -81q0 -41 9 -77q28 -1 50 2q68 12 68 108q-1 33 -17.5 56t-41.5 23z" />
    <glyph glyph-name="Ecaron" unicode="&#x11a;" horiz-adv-x="622" 
d="M236 767l-107 104q-14 15 3 32t33 9l143 -69l141 69q17 9 33.5 -9.5t2.5 -31.5l-114 -105q-21 -18 -47 -18h-40q-28 0 -48 19zM583 193q11 0 17 -9.5t4 -20.5l-22 -131q-3 -17 -10.5 -24.5t-24.5 -7.5h-482q-24 0 -24 19v4q0 12 20 36.5t20 50.5v490q0 26 -20 50.5
t-20 36.5v4q0 19 23 19h458q16 0 23.5 -7t10.5 -24l24 -126q2 -13 -5 -21t-20 -8h-5q-19 0 -38.5 18.5t-34 40t-37 40t-46.5 18.5h-88q-45 0 -45 -49v-196h105q18 0 32 12.5t21 27.5t16.5 27.5t18.5 12.5h8q20 0 20 -23v-180q0 -23 -20 -23h-8q-9 0 -18.5 12t-16.5 26
t-21 26t-32 12h-105v-184q0 -30 14 -51.5t46 -21.5h105q24 0 44.5 19.5t33.5 42.5t31.5 42.5t38.5 19.5h9z" />
    <glyph glyph-name="ecaron" unicode="&#x11b;" horiz-adv-x="499" 
d="M191 564l-107 112q-15 16 2 33.5t34 9.5l143 -74l140 74q18 9 34.5 -10t2.5 -33l-114 -113q-20 -19 -48 -19h-40q-27 0 -47 20zM442 158q11 11 24.5 6.5t12.5 -20.5q-1 -23 -13.5 -48t-35.5 -49.5t-63.5 -40.5t-91.5 -16q-112 0 -182.5 70t-70.5 183q0 109 72 177.5
t176 69.5q89 1 144 -39t55 -106q0 -52 -44.5 -92t-115.5 -51q-50 -9 -100 -7q42 -81 126 -81q74 0 107 44zM249 437q-31 0 -49.5 -31t-18.5 -81q0 -41 9 -77q28 -1 50 2q68 12 68 108q-1 33 -17.5 56t-41.5 23z" />
    <glyph glyph-name="Gbreve" unicode="&#x11e;" horiz-adv-x="717" 
d="M380 759q-72 0 -119.5 39t-55.5 98q-3 23 23 30t36 -9q12 -24 44.5 -38.5t71.5 -14.5q40 0 72.5 14.5t44.5 38.5q5 8 20 8.5t27.5 -8t11.5 -21.5q-8 -59 -55 -98t-121 -39zM680 363q24 0 24 -19v-4q0 -12 -24.5 -36.5t-24.5 -50.5v-236q0 -11 -7 -19t-18 -8q-18 0 -29 11
l-41 47q-34 -26 -84 -42t-95 -16q-160 0 -257.5 107t-97.5 259q0 109 50.5 193.5t126.5 127t161 42.5q126 0 210 -54t84 -131q0 -37 -21.5 -59t-58.5 -22q-30 0 -55.5 14.5t-43 36t-36.5 47t-35 47t-39 36t-50 14.5q-51 0 -83.5 -49t-32.5 -125q0 -147 66.5 -250t160.5 -103
q38 0 56 11v122q0 20 -14 35.5t-27.5 27.5t-13.5 24v4q0 19 26 19z" />
    <glyph glyph-name="gbreve" unicode="&#x11f;" horiz-adv-x="593" 
d="M297 547q-72 0 -120 39t-56 98q-3 23 23.5 29.5t35.5 -8.5q12 -24 45 -38.5t72 -14.5q40 0 72 14.5t44 38.5q5 8 20 8.5t27.5 -8t11.5 -21.5q-8 -59 -55 -98t-120 -39zM553 465q24 -3 24 -28v-4q0 -8 -11 -19t-22 -29t-11 -42v-279q0 -127 -71 -195.5t-179 -68.5
q-109 0 -178.5 38.5t-69.5 95.5q0 26 18 46t51 20q27 0 46.5 -15.5t32 -37.5t25 -44.5t31.5 -38t45 -16.5q35 -1 57.5 38.5t22.5 124.5v19q-44 -30 -105 -30q-96 0 -165.5 65t-69.5 175q0 109 69.5 179.5t166.5 70.5q74 0 122 -42v6q0 16 13 24t35 5zM299 49q27 -1 46 22
t19 62v183q0 48 -28 86.5t-63 38.5q-73 0 -78 -123q-2 -45 8 -105t36 -111.5t60 -52.5z" />
    <glyph glyph-name="Gdotaccent" unicode="&#x120;" horiz-adv-x="717" 
d="M388 753q-47 0 -76 26.5t-29 66.5t29 66t76 26t76 -26t29 -66t-29 -66.5t-76 -26.5zM680 363q24 0 24 -19v-4q0 -12 -24.5 -36.5t-24.5 -50.5v-236q0 -11 -7 -19t-18 -8q-18 0 -29 11l-41 47q-34 -26 -84 -42t-95 -16q-160 0 -257.5 107t-97.5 259q0 109 50.5 193.5
t126.5 127t161 42.5q126 0 210 -54t84 -131q0 -37 -21.5 -59t-58.5 -22q-30 0 -55.5 14.5t-43 36t-36.5 47t-35 47t-39 36t-50 14.5q-51 0 -83.5 -49t-32.5 -125q0 -147 66.5 -250t160.5 -103q38 0 56 11v122q0 20 -14 35.5t-27.5 27.5t-13.5 24v4q0 19 26 19z" />
    <glyph glyph-name="gdotaccent" unicode="&#x121;" horiz-adv-x="593" 
d="M296 540q-50 0 -82 29t-32 72t32 71.5t82 28.5t82 -28.5t32 -71.5t-32 -72t-82 -29zM553 465q24 -3 24 -28v-4q0 -8 -11 -19t-22 -29t-11 -42v-279q0 -127 -71 -195.5t-179 -68.5q-109 0 -178.5 38.5t-69.5 95.5q0 26 18 46t51 20q27 0 46.5 -15.5t32 -37.5t25 -44.5
t31.5 -38t45 -16.5q35 -1 57.5 38.5t22.5 124.5v19q-44 -30 -105 -30q-96 0 -165.5 65t-69.5 175q0 109 69.5 179.5t166.5 70.5q74 0 122 -42v6q0 16 13 24t35 5zM299 49q27 -1 46 22t19 62v183q0 48 -28 86.5t-63 38.5q-73 0 -78 -123q-2 -45 8 -105t36 -111.5t60 -52.5z
" />
    <glyph glyph-name="uni0122" unicode="&#x122;" horiz-adv-x="717" 
d="M680 363q24 0 24 -19v-4q0 -12 -24.5 -36.5t-24.5 -50.5v-236q0 -11 -7 -19t-18 -8q-18 0 -29 11l-41 47q-34 -26 -84 -42t-95 -16q-160 0 -257.5 107t-97.5 259q0 109 50.5 193.5t126.5 127t161 42.5q126 0 210 -54t84 -131q0 -37 -21.5 -59t-58.5 -22q-30 0 -55.5 14.5
t-43 36t-36.5 47t-35 47t-39 36t-50 14.5q-51 0 -83.5 -49t-32.5 -125q0 -147 66.5 -250t160.5 -103q38 0 56 11v122q0 20 -14 35.5t-27.5 27.5t-13.5 24v4q0 19 26 19zM382 -30q39 0 66.5 -28.5t27.5 -78.5q0 -115 -131 -194q-15 -9 -27.5 4t-0.5 26q27 27 38 42t13 33
q2 20 -12 20q-26 0 -44.5 23.5t-18.5 58.5q0 42 24 68t65 26z" />
    <glyph glyph-name="uni0123" unicode="&#x123;" horiz-adv-x="593" 
d="M300 534q-40 0 -69 30t-29 81q0 121 137 203q16 10 29 -4t0 -27q-29 -30 -40 -45t-13 -34q-2 -20 12 -20q27 0 46.5 -24.5t19.5 -61.5q0 -44 -25.5 -71t-67.5 -27zM553 465q24 -3 24 -28v-4q0 -8 -11 -19t-22 -29t-11 -42v-279q0 -127 -71 -195.5t-179 -68.5
q-109 0 -178.5 38.5t-69.5 95.5q0 26 18 46t51 20q27 0 46.5 -15.5t32 -37.5t25 -44.5t31.5 -38t45 -16.5q35 -1 57.5 38.5t22.5 124.5v19q-44 -30 -105 -30q-96 0 -165.5 65t-69.5 175q0 109 69.5 179.5t166.5 70.5q74 0 122 -42v6q0 16 13 24t35 5zM299 49q27 -1 46 22
t19 62v183q0 48 -28 86.5t-63 38.5q-73 0 -78 -123q-2 -45 8 -105t36 -111.5t60 -52.5z" />
    <glyph glyph-name="Hbar" unicode="&#x126;" horiz-adv-x="799" 
d="M763 562q25 0 25 -19v-28q0 -19 -25 -19h-52v-387q0 -25 22.5 -49.5t22.5 -36.5v-4q0 -19 -24 -19h-219q-23 0 -23 19v4q0 12 19.5 36.5t19.5 49.5v210h-263l-1 -210q0 -25 22.5 -49.5t22.5 -36.5v-4q0 -19 -24 -19h-218q-24 0 -24 19v4q0 12 20 36.5t20 49.5v387h-49
q-24 0 -24 19v28q0 19 24 19h49v39q0 25 -20 49.5t-20 36.5v4q0 19 24 19h218q24 0 24 -19v-4q0 -12 -22 -36.5t-22 -49.5v-39h263v39q0 25 -19.5 49.5t-19.5 36.5v4q0 19 23 19h219q24 0 24 -19v-4q0 -12 -22.5 -36.5t-22.5 -49.5v-39h52zM529 397v99h-263v-99h263z" />
    <glyph glyph-name="hbar" unicode="&#x127;" horiz-adv-x="607" 
d="M558 110q2 -25 19 -49.5t17 -37.5v-4q0 -19 -24 -19h-199q-24 0 -24 19v4q0 12 18.5 37t17.5 50l-10 186q-4 69 -20 98.5t-50 29.5q-32 0 -48.5 -26t-16.5 -71v-218q0 -25 22.5 -49.5t22.5 -36.5v-4q0 -19 -24 -19h-217q-23 0 -23 19v4q0 12 22 36.5t22 49.5v409h-48
q-17 0 -17 17v33q0 18 17 18h47q-4 18 -26 36.5t-22 30.5v3q0 18 23 28l158 70q17 8 27.5 2t10.5 -23v-147h100q7 0 12.5 -5t5.5 -13v-30q0 -20 -18 -20h-100v-75q45 47 122 47q74 0 128 -47.5t62 -152.5z" />
    <glyph glyph-name="Itilde" unicode="&#x128;" horiz-adv-x="347" 
d="M116 908q39 0 89.5 -23.5t68.5 -23.5q29 0 45 22q9 14 25 14h7q21 0 16 -23q-11 -51 -41.5 -84t-73.5 -33q-34 0 -86.5 25t-75.5 25t-39 -19q-2 -3 -5 -6.5t-4 -5t-3.5 -3.5t-5.5 -2.5t-8 -0.5h-12q-20 0 -15 23q10 49 41.5 82t76.5 33zM41 19v4q0 12 20 36.5t20 49.5
v492q0 25 -20 49.5t-20 36.5v4q0 19 24 19h217q24 0 24 -19v-4q0 -12 -22 -36.5t-22 -49.5v-492q0 -25 22 -49.5t22 -36.5v-4q0 -19 -24 -19h-217q-24 0 -24 19z" />
    <glyph glyph-name="itilde" unicode="&#x129;" horiz-adv-x="310" 
d="M94 722q39 0 89.5 -23.5t68.5 -23.5q29 0 45 22q9 14 24 14h8q21 0 16 -23q-11 -51 -42 -84t-74 -33q-34 0 -86 25t-75 25t-39 -19q-2 -2 -5 -6t-4.5 -5.5t-4 -3.5t-5.5 -2.5t-8 -0.5h-11q-19 0 -16 23q10 48 42 81.5t77 33.5zM52 0q-24 0 -24 19v4q0 12 20 37t20 50v190
q0 26 -20 50.5t-20 33.5v4q0 12 23 23l151 74q21 9 33 2t12 -23v-354q0 -25 22.5 -50t22.5 -37v-4q0 -19 -25 -19h-215z" />
    <glyph glyph-name="Imacron" unicode="&#x12a;" horiz-adv-x="347" 
d="M33 790q-24 0 -24 24v61q0 23 24 23h283q24 0 24 -23v-61q0 -24 -24 -24h-283zM41 19v4q0 12 20 36.5t20 49.5v492q0 25 -20 49.5t-20 36.5v4q0 19 24 19h217q24 0 24 -19v-4q0 -12 -22 -36.5t-22 -49.5v-492q0 -25 22 -49.5t22 -36.5v-4q0 -19 -24 -19h-217
q-24 0 -24 19z" />
    <glyph glyph-name="imacron" unicode="&#x12b;" horiz-adv-x="310" 
d="M20 577q-24 0 -24 24v60q0 24 24 24h283q24 0 24 -24v-60q0 -24 -24 -24h-283zM52 0q-24 0 -24 19v4q0 12 20 37t20 50v190q0 26 -20 50.5t-20 33.5v4q0 12 23 23l151 74q21 9 33 2t12 -23v-354q0 -25 22.5 -50t22.5 -37v-4q0 -19 -25 -19h-215z" />
    <glyph glyph-name="Iogonek" unicode="&#x12e;" horiz-adv-x="347" 
d="M306 687q0 -12 -22 -36.5t-22 -49.5v-492q0 -25 22 -49.5t22 -36.5v-4q0 -19 -24 -19h-75q-47 -62 -47 -110q-1 -45 29 -45q7 0 18 3q21 7 27 -17q8 -27 -13 -43l-8 -4q-18 -9 -55 -9q-49 0 -85 22t-36 70q0 76 101 133h-73q-24 0 -24 19v4q0 12 20 36.5t20 49.5v492
q0 25 -20 49.5t-20 36.5v4q0 19 24 19h217q24 0 24 -19v-4z" />
    <glyph glyph-name="iogonek" unicode="&#x12f;" horiz-adv-x="310" 
d="M159 539q-51 0 -83 28.5t-32 71.5t32 71.5t83 28.5q50 0 82 -28.5t32 -71.5t-32 -71.5t-82 -28.5zM247 110q0 -25 22.5 -50t22.5 -37v-4q0 -19 -25 -19h-46q-47 -60 -47 -110q-1 -45 29 -45q3 0 17 4q21 7 28 -16q8 -27 -13 -44q-4 -3 -9 -5q-18 -8 -55 -8q-49 0 -85 22
t-36 70q0 74 100 132h-98q-24 0 -24 19v4q0 12 20 37t20 50v190q0 26 -20 50.5t-20 33.5v4q0 12 23 23l151 74q21 9 33 2t12 -23v-354z" />
    <glyph glyph-name="Idotaccent" unicode="&#x130;" horiz-adv-x="347" 
d="M183 753q-47 0 -76.5 26.5t-29.5 66.5t29.5 66t76.5 26q46 0 75 -26t29 -66t-29 -66.5t-75 -26.5zM41 19v4q0 12 20 36.5t20 49.5v492q0 25 -20 49.5t-20 36.5v4q0 19 24 19h217q24 0 24 -19v-4q0 -12 -22 -36.5t-22 -49.5v-492q0 -25 22 -49.5t22 -36.5v-4
q0 -19 -24 -19h-217q-24 0 -24 19z" />
    <glyph glyph-name="dotlessi" unicode="&#x131;" horiz-adv-x="309" 
d="M52 0q-24 0 -24 19v4q0 12 20 37t20 50v190q0 26 -20 50.5t-20 33.5v4q0 12 23 23l151 74q21 9 33 2t12 -23v-354q0 -25 22.5 -50t22.5 -37v-4q0 -19 -25 -19h-215z" />
    <glyph glyph-name="IJ" unicode="&#x132;" horiz-adv-x="903" 
d="M41 19v4q0 12 20 36.5t20 49.5v492q0 25 -20 49.5t-20 36.5v4q0 19 24 19h217q24 0 24 -19v-4q0 -12 -22 -36.5t-22 -49.5v-492q0 -25 22 -49.5t22 -36.5v-4q0 -19 -24 -19h-217q-24 0 -24 19zM650 601q0 25 -20.5 49.5t-20.5 36.5v4q0 19 25 19h219q24 0 24 -19v-4
q0 -12 -22 -36.5t-22 -49.5v-283q-1 -173 -64.5 -249.5t-186.5 -78.5q-69 -1 -119.5 17t-76 47t-37 58.5t-11.5 59.5q0 40 22 64t59 24q38 0 60 -20.5t30.5 -50t15.5 -58.5t22 -49.5t42 -20.5q61 0 61 146v394z" />
    <glyph glyph-name="ij" unicode="&#x133;" horiz-adv-x="604" 
d="M159 539q-51 0 -83 28.5t-32 71.5t32 71.5t83 28.5q50 0 82 -28.5t32 -71.5t-32 -71.5t-82 -28.5zM457 539q-50 0 -82 28.5t-32 71.5t32 71.5t82 28.5q51 0 82.5 -28.5t31.5 -71.5t-31.5 -71.5t-82.5 -28.5zM52 0q-24 0 -24 19v4q0 12 20 37t20 50v190q0 26 -20 50.5
t-20 33.5v4q0 12 23 23l151 74q21 9 33 2t12 -23v-354q0 -25 22.5 -50t22.5 -37v-4q0 -19 -25 -19h-215zM372 -199q-74 0 -117 26.5t-43 80.5q0 32 21 52t53 20q29 0 46 -12.5t24 -31t11.5 -36.5t14 -30.5t26.5 -12.5q16 0 26.5 12t10.5 30q0 25 -10.5 46.5t-22.5 34
t-22.5 31t-10.5 39.5v250q0 26 -20 50t-20 34v4q0 11 22 23l152 74q21 9 33.5 2t12.5 -23v-471q0 -80 -39 -127q-55 -65 -148 -65z" />
    <glyph glyph-name="uni0136" unicode="&#x136;" horiz-adv-x="731" 
d="M683 139q5 -34 32.5 -69.5t27.5 -46.5v-4q0 -19 -24 -19h-246q-24 0 -24 19v4q0 11 23 34.5t22 52.5q0 58 -42.5 132.5t-101.5 111.5l-87 -89v-155q0 -25 22 -50t22 -37v-4q0 -19 -24 -19h-218q-24 0 -24 19v4q0 12 20 37t20 50v491q0 25 -20 49.5t-20 36.5v4q0 19 24 19
h218q24 0 24 -19v-4q0 -12 -22 -36.5t-22 -49.5v-228l221 227q17 23 15 33.5t-12.5 27t-10.5 26.5v4q0 19 24 19h163q24 0 24 -19v-4q0 -12 -13.5 -23.5t-38.5 -28.5t-42 -35l-123 -125q91 -56 146.5 -154.5t66.5 -181.5zM377 -30q39 0 66.5 -28.5t27.5 -78.5
q0 -115 -132 -194q-15 -9 -27.5 4t0.5 26q19 20 27.5 29.5t15 21.5t7.5 24q2 20 -11 20q-27 0 -45.5 23.5t-18.5 58.5q0 42 24.5 68t65.5 26z" />
    <glyph glyph-name="uni0137" unicode="&#x137;" horiz-adv-x="599" 
d="M558 84q4 -7 29.5 -25.5t25.5 -35.5v-4q0 -19 -23 -19h-209q-23 0 -23 20v4q0 12 15 29t6 31l-86 134q-28 -5 -53 -5v-103q0 -25 22.5 -50t22.5 -37v-4q0 -19 -24 -19h-217q-24 0 -24 19v4q0 12 20 37t20 50v456q0 26 -24 50.5t-24 34.5v4q0 11 23 23l160 74q21 8 33 1.5
t12 -22.5v-447q47 4 76.5 27t42 52t22.5 58t29.5 48.5t52.5 19.5q39 0 58.5 -20.5t19.5 -53.5q0 -36 -28.5 -76.5t-79.5 -71.5zM298 -30q39 0 66.5 -28.5t27.5 -78.5q0 -115 -131 -194q-15 -9 -27.5 4t-0.5 26q27 27 38 42t13 33q2 20 -12 20q-26 0 -44.5 23.5t-18.5 58.5
q0 42 24 68t65 26z" />
    <glyph glyph-name="kgreenlandic" unicode="&#x138;" horiz-adv-x="599" 
d="M558 84q4 -7 29.5 -25.5t25.5 -35.5v-4q0 -19 -23 -19h-209q-23 0 -23 20v4q0 12 15 29t6 31l-86 134q-28 -5 -53 -5v-103q0 -25 22.5 -50t22.5 -37v-4q0 -19 -24 -19h-217q-24 0 -24 19v4q0 12 20 37t20 50v292q0 26 -24 51t-24 35v3q0 11 23 23l160 75q21 8 33 0.5
t12 -22.5v-283q47 4 76.5 27t42 52t22.5 58t29.5 48.5t52.5 19.5q39 0 58.5 -20.5t19.5 -53.5q0 -36 -28.5 -76.5t-79.5 -71.5z" />
    <glyph glyph-name="Lacute" unicode="&#x139;" horiz-adv-x="608" 
d="M94 774q-28 -2 -39 20q-10 26 14 40l192 103q21 11 36 4t21 -27l20 -72q6 -20 -2.5 -34t-29.5 -15zM65 0q-24 0 -24 19v4q0 12 20 36.5t20 49.5v492q0 25 -20 49.5t-20 36.5v4q0 19 24 19h220q24 0 24 -19v-4q0 -12 -22.5 -36.5t-22.5 -49.5v-466q0 -27 12.5 -46
t36.5 -19h104q28 0 51.5 22t36 49t28.5 49t31 22h14q25 0 20 -25l-26 -155q-6 -32 -35 -32h-472z" />
    <glyph glyph-name="lacute" unicode="&#x13a;" horiz-adv-x="304" 
d="M16 796q-29 -2 -38 20q-10 24 14 39l192 103q21 11 36 4.5t21 -26.5l20 -72q5 -20 -3 -34.5t-29 -15.5zM44 0q-23 0 -23 19v4q0 12 19.5 36.5t19.5 49.5v457q0 26 -19.5 50.5t-19.5 34.5v4q0 11 22 23l151 74q21 9 33.5 1.5t12.5 -22.5v-622q0 -25 22 -49.5t22 -36.5v-4
q0 -19 -24 -19h-216z" />
    <glyph glyph-name="uni013B" unicode="&#x13b;" horiz-adv-x="608" 
d="M65 0q-24 0 -24 19v4q0 12 20 36.5t20 49.5v492q0 25 -20 49.5t-20 36.5v4q0 19 24 19h220q24 0 24 -19v-4q0 -12 -22.5 -36.5t-22.5 -49.5v-466q0 -27 12.5 -46t36.5 -19h104q28 0 51.5 22t36 49t28.5 49t31 22h14q25 0 20 -25l-26 -155q-6 -32 -35 -32h-472zM278 -331
q-15 -9 -28 4t0 26q19 20 27.5 29.5t15 21.5t7.5 24q3 20 -11 20q-26 0 -44.5 23.5t-18.5 58.5q0 42 24 68t65 26q39 0 66.5 -28.5t27.5 -78.5q0 -115 -131 -194z" />
    <glyph glyph-name="uni013C" unicode="&#x13c;" horiz-adv-x="304" 
d="M44 0q-23 0 -23 19v4q0 12 19.5 36.5t19.5 49.5v457q0 26 -19.5 50.5t-19.5 34.5v4q0 11 22 23l151 74q21 9 33.5 1.5t12.5 -22.5v-622q0 -25 22 -49.5t22 -36.5v-4q0 -19 -24 -19h-216zM114 -328q-15 -9 -27.5 4.5t-0.5 25.5q27 27 38 42.5t13 33.5q2 19 -12 19
q-26 0 -44.5 23.5t-18.5 58.5q0 42 24 68.5t65 26.5q39 0 66.5 -29t27.5 -78q0 -116 -131 -195z" />
    <glyph glyph-name="Lcaron" unicode="&#x13d;" horiz-adv-x="613" 
d="M399 528l-11 7q-18 14 -3 34q50 65 50 189q0 12 7.5 20.5t18.5 8.5h68q30 0 30 -29q0 -76 -34.5 -137t-85.5 -92q-23 -13 -40 -1zM65 0q-24 0 -24 19v4q0 12 20 36.5t20 49.5v492q0 25 -20 49.5t-20 36.5v4q0 19 24 19h220q24 0 24 -19v-4q0 -12 -22.5 -36.5t-22.5 -49.5
v-466q0 -27 12.5 -46t36.5 -19h104q28 0 51.5 22t36 49t28.5 49t31 22h14q25 0 20 -25l-26 -155q-6 -32 -35 -32h-472z" />
    <glyph glyph-name="lcaron" unicode="&#x13e;" horiz-adv-x="319" 
d="M294 542l-10 7q-19 13 -3 34q50 66 50 189q0 11 7.5 20t17.5 9h69q30 0 30 -29q0 -76 -35 -136.5t-86 -92.5q-21 -13 -40 -1zM44 0q-23 0 -23 19v4q0 12 19.5 36.5t19.5 49.5v457q0 26 -19.5 50.5t-19.5 34.5v4q0 11 22 23l151 74q21 9 33.5 1.5t12.5 -22.5v-622
q0 -25 22 -49.5t22 -36.5v-4q0 -19 -24 -19h-216z" />
    <glyph glyph-name="Ldot" unicode="&#x13f;" horiz-adv-x="614" 
d="M65 0q-24 0 -24 19v4q0 12 20 36.5t20 49.5v492q0 25 -20 49.5t-20 36.5v4q0 19 24 19h220q24 0 24 -19v-4q0 -12 -22.5 -36.5t-22.5 -49.5v-466q0 -27 12.5 -46t36.5 -19h104q28 0 51.5 22t36 49t28.5 49t31 22h14q25 0 20 -25l-26 -155q-6 -32 -35 -32h-472zM467 287
q-46 0 -76 24t-30 71q0 46 30 70t76 24t76 -24t30 -70q0 -47 -30 -71t-76 -24z" />
    <glyph glyph-name="ldot" unicode="&#x140;" horiz-adv-x="512" 
d="M44 0q-23 0 -23 19v4q0 12 19.5 36.5t19.5 49.5v457q0 26 -19.5 50.5t-19.5 34.5v4q0 11 22 23l151 74q21 9 33.5 1.5t12.5 -22.5v-622q0 -25 22 -49.5t22 -36.5v-4q0 -19 -24 -19h-216zM405 291q-46 0 -76 24t-30 71t30 71t76 24t75.5 -24.5t29.5 -70.5t-29.5 -70.5
t-75.5 -24.5z" />
    <glyph glyph-name="Lslash" unicode="&#x141;" horiz-adv-x="634" 
d="M604 212q25 0 20 -25l-26 -155q-6 -32 -35 -32h-472q-24 0 -24 19v4q0 12 20 36.5t20 49.5v144l-54 -24q-23 -9 -30 12l-9 20q-8 21 14 29l79 35v276q0 25 -20 49.5t-20 36.5v4q0 19 24 19h220q24 0 24 -19v-4q0 -12 -22.5 -36.5t-22.5 -49.5v-194l79 35q22 10 31 -13
l7 -18q8 -21 -13 -30l-104 -46v-200q0 -27 12.5 -46t36.5 -19h104q28 0 51.5 22t36 49t28.5 49t31 22h14z" />
    <glyph glyph-name="lslash" unicode="&#x142;" horiz-adv-x="384" 
d="M381 447q9 -14 -6 -25l-85 -55v-258q0 -25 22 -49.5t22 -36.5v-4q0 -19 -24 -19h-215q-24 0 -24 19v4q0 12 20 36.5t20 49.5v142l-57 -37q-14 -8 -23 4l-22 34q-9 14 7 25l95 62v227q0 26 -20 50.5t-20 34.5v4q0 11 23 23l151 74q21 9 33 1.5t12 -22.5v-275l42 27
q19 13 29 -4z" />
    <glyph glyph-name="Nacute" unicode="&#x143;" horiz-adv-x="759" 
d="M308 774q-29 -2 -38 20q-10 26 14 40l192 103q21 11 36 4t21 -27l20 -72q5 -20 -3 -34t-29 -15zM704 710q24 0 24 -19v-4q0 -12 -22.5 -36.5t-22.5 -49.5v-554q0 -47 -46 -47h-57q-29 0 -53 33l-356 472v-395q0 -25 23.5 -50t23.5 -37v-4q0 -19 -25 -19h-128
q-24 0 -24 19v4q0 12 20 37t20 50v490q0 25 -20 50t-20 37v4q0 19 24 19h235q23 0 23 -19v-4q0 -6 -7.5 -16t-14.5 -19t-8.5 -23t11.5 -29l289 -388v389q0 25 -22 49.5t-22 36.5v4q0 19 24 19h131z" />
    <glyph glyph-name="nacute" unicode="&#x144;" horiz-adv-x="616" 
d="M246 546q-27 -7 -41 13q-14 24 7 42l171 134q19 14 35 10.5t25 -22.5l32 -68q10 -18 4 -33.5t-27 -20.5zM568 109q2 -25 19 -49.5t17 -37.5v-4q0 -19 -24 -19h-200q-24 0 -24 19v4q0 12 19 37t17 50l-10 179q-4 74 -19.5 105t-49.5 31q-32 0 -48.5 -26t-16.5 -71v-218
q0 -25 22 -50t22 -37v-4q0 -19 -24 -19h-216q-24 0 -24 19v4q0 12 22 37t22 50v197q0 21 -13 35.5t-26.5 25t-13.5 22.5v3q0 13 24 25l140 69q19 8 28.5 0.5t9.5 -24.5v-47q42 75 143 75q75 0 129 -49t62 -159z" />
    <glyph glyph-name="uni0145" unicode="&#x145;" horiz-adv-x="759" 
d="M704 710q24 0 24 -19v-4q0 -12 -22.5 -36.5t-22.5 -49.5v-554q0 -47 -46 -47h-57q-29 0 -53 33l-356 472v-395q0 -25 23.5 -50t23.5 -37v-4q0 -19 -25 -19h-128q-24 0 -24 19v4q0 12 20 37t20 50v490q0 25 -20 50t-20 37v4q0 19 24 19h235q23 0 23 -19v-4q0 -6 -7.5 -16
t-14.5 -19t-8.5 -23t11.5 -29l289 -388v389q0 25 -22 49.5t-22 36.5v4q0 19 24 19h131zM384 -30q39 0 66.5 -28.5t27.5 -78.5q0 -115 -131 -194q-15 -9 -27.5 4t-0.5 26q28 28 39 43t12 32q2 20 -11 20q-27 0 -45.5 23.5t-18.5 58.5q0 42 24.5 68t64.5 26z" />
    <glyph glyph-name="uni0146" unicode="&#x146;" horiz-adv-x="616" 
d="M568 109q2 -25 19 -49.5t17 -37.5v-4q0 -19 -24 -19h-200q-24 0 -24 19v4q0 12 19 37t17 50l-10 179q-4 74 -19.5 105t-49.5 31q-32 0 -48.5 -26t-16.5 -71v-218q0 -25 22 -50t22 -37v-4q0 -19 -24 -19h-216q-24 0 -24 19v4q0 12 22 37t22 50v197q0 21 -13 35.5t-26.5 25
t-13.5 22.5v3q0 13 24 25l140 69q19 8 28.5 0.5t9.5 -24.5v-47q42 75 143 75q75 0 129 -49t62 -159zM311 -30q39 0 66.5 -28.5t27.5 -78.5q0 -115 -131 -194q-15 -9 -28 4t0 26q27 27 38 42t13 33q2 20 -12 20q-26 0 -44.5 23.5t-18.5 58.5q0 42 24 68t65 26z" />
    <glyph glyph-name="Ncaron" unicode="&#x147;" horiz-adv-x="759" 
d="M326 767l-107 104q-15 15 2 32t34 9l143 -69l140 69q18 9 34.5 -9t2.5 -32l-114 -105q-21 -18 -48 -18h-40q-27 0 -47 19zM704 710q24 0 24 -19v-4q0 -12 -22.5 -36.5t-22.5 -49.5v-554q0 -47 -46 -47h-57q-29 0 -53 33l-356 472v-395q0 -25 23.5 -50t23.5 -37v-4
q0 -19 -25 -19h-128q-24 0 -24 19v4q0 12 20 37t20 50v490q0 25 -20 50t-20 37v4q0 19 24 19h235q23 0 23 -19v-4q0 -6 -7.5 -16t-14.5 -19t-8.5 -23t11.5 -29l289 -388v389q0 25 -22 49.5t-22 36.5v4q0 19 24 19h131z" />
    <glyph glyph-name="ncaron" unicode="&#x148;" horiz-adv-x="616" 
d="M265 564l-107 112q-14 16 3 33.5t34 9.5l143 -74l140 74q17 9 33.5 -10.5t2.5 -32.5l-114 -113q-20 -19 -47 -19h-40q-28 0 -48 20zM568 109q2 -25 19 -49.5t17 -37.5v-4q0 -19 -24 -19h-200q-24 0 -24 19v4q0 12 19 37t17 50l-10 179q-4 74 -19.5 105t-49.5 31
q-32 0 -48.5 -26t-16.5 -71v-218q0 -25 22 -50t22 -37v-4q0 -19 -24 -19h-216q-24 0 -24 19v4q0 12 22 37t22 50v197q0 21 -13 35.5t-26.5 25t-13.5 22.5v3q0 13 24 25l140 69q19 8 28.5 0.5t9.5 -24.5v-47q42 75 143 75q75 0 129 -49t62 -159z" />
    <glyph glyph-name="napostrophe" unicode="&#x149;" horiz-adv-x="708" 
d="M60 803q44 0 75 -33t31 -89q0 -131 -149 -220q-17 -11 -31 4.5t0 29.5q31 31 43 48t14 38q3 22 -13 22q-30 0 -51 26.5t-21 66.5q0 48 27.5 77.5t74.5 29.5zM660 109q2 -25 19 -49.5t17 -37.5v-4q0 -19 -24 -19h-200q-24 0 -24 19v4q0 12 19 37t17 50l-10 179
q-4 74 -19.5 105t-49.5 31q-32 0 -48.5 -26t-16.5 -71v-218q0 -25 22 -50t22 -37v-4q0 -19 -24 -19h-216q-24 0 -24 19v4q0 12 22 37t22 50v197q0 21 -13 35.5t-26.5 25t-13.5 22.5v3q0 13 24 25l140 69q19 8 28.5 0.5t9.5 -24.5v-47q42 75 143 75q75 0 129 -49t62 -159z
" />
    <glyph glyph-name="Eng" unicode="&#x14a;" horiz-adv-x="761" 
d="M704 710q24 0 24 -19v-4q0 -12 -22.5 -37t-22.5 -50v-609q0 -212 -192 -215q-53 0 -95 16t-65.5 42t-35.5 53.5t-12 53.5q0 42 23 66t61 24q33 0 52 -20t26 -48t12.5 -56t19.5 -48t40 -20q39 0 57.5 38.5t18.5 98.5v15l-422 535v-416q0 -25 23 -50t23 -37v-4
q0 -19 -24 -19h-128q-24 0 -24 19v4q0 12 20 37t20 50v490q0 25 -20 50t-20 37v4q0 19 24 19h130q31 0 53 -32l345 -474v396q0 25 -20.5 50t-20.5 37v4q0 19 24 19h128z" />
    <glyph glyph-name="eng" unicode="&#x14b;" horiz-adv-x="602" 
d="M574 24q8 -105 -36 -158q-56 -66 -148 -66q-68 0 -112.5 29.5t-44.5 73.5q0 31 21 48.5t53 17.5t49.5 -17.5t22 -38.5t16 -38.5t31.5 -17.5q17 0 27 11.5t10 30.5q0 24 -9.5 43.5t-21.5 31.5t-23.5 38.5t-13.5 63.5l-13 210q-5 76 -20.5 107t-49.5 31q-56 0 -64 -76v-238
q0 -25 22 -50t22 -37v-4q0 -19 -24 -19h-216q-24 0 -24 19v4q0 12 22 37t22 50v195q0 20 -13 35t-26.5 26t-13.5 23v3q0 13 24 25l140 69q19 8 28.5 0.5t9.5 -24.5v-46q42 74 143 74q47 0 86 -18t69 -67t36 -125z" />
    <glyph glyph-name="Omacron" unicode="&#x14c;" horiz-adv-x="758" 
d="M232 790q-24 0 -24 24v61q0 23 24 23h283q24 0 24 -23v-61q0 -24 -24 -24h-283zM380 -10q-146 0 -250 102t-104 259q0 165 97.5 267t255.5 102q146 0 249.5 -105.5t103.5 -264.5q0 -160 -101.5 -260t-250.5 -100zM432 65q54 0 84 38t30 105q0 86 -32 187.5t-87.5 175.5
t-112.5 74q-53 0 -82.5 -38t-29.5 -108q0 -95 32 -195.5t86.5 -169.5t111.5 -69z" />
    <glyph glyph-name="omacron" unicode="&#x14d;" horiz-adv-x="587" 
d="M152 577q-24 0 -24 24v60q0 24 24 24h283q24 0 24 -24v-60q0 -24 -24 -24h-283zM298 -10q-116 0 -196.5 71.5t-80.5 179.5t80 178.5t190 70.5q114 0 194 -71t80 -180q0 -108 -78 -178.5t-189 -70.5zM319 39q64 0 64 123q0 45 -12.5 107t-42 117t-65.5 55q-35 0 -50 -31
t-15 -94q0 -33 8 -78t22 -90.5t38.5 -77t52.5 -31.5z" />
    <glyph glyph-name="Ohungarumlaut" unicode="&#x150;" horiz-adv-x="758" 
d="M221 732q-11 10 2 33l104 177q26 43 58 11l36 -34q17 -15 18 -31t-17 -28l-169 -125q-19 -14 -32 -3zM435 732q-11 10 2 33l104 177q26 42 59 11l35 -34q37 -34 1 -59l-168 -125q-20 -15 -33 -3zM380 -10q-146 0 -250 102t-104 259q0 165 97.5 267t255.5 102
q146 0 249.5 -105.5t103.5 -264.5q0 -160 -101.5 -260t-250.5 -100zM432 65q54 0 84 38t30 105q0 86 -32 187.5t-87.5 175.5t-112.5 74q-53 0 -82.5 -38t-29.5 -108q0 -95 32 -195.5t86.5 -169.5t111.5 -69z" />
    <glyph glyph-name="ohungarumlaut" unicode="&#x151;" horiz-adv-x="587" 
d="M102 538q-10 10 2 33l105 177q25 42 58 11l35 -34q17 -15 18 -31t-17 -28l-168 -125q-20 -15 -33 -3zM316 538q-10 10 2 33l105 177q25 42 58 11l36 -34q37 -34 1 -59l-169 -125q-20 -15 -33 -3zM298 -10q-116 0 -196.5 71.5t-80.5 179.5t80 178.5t190 70.5
q114 0 194 -71t80 -180q0 -108 -78 -178.5t-189 -70.5zM319 39q64 0 64 123q0 45 -12.5 107t-42 117t-65.5 55q-35 0 -50 -31t-15 -94q0 -33 8 -78t22 -90.5t38.5 -77t52.5 -31.5z" />
    <glyph glyph-name="OE" unicode="&#x152;" horiz-adv-x="1040" 
d="M1007 186q10 0 15.5 -6.5t3.5 -16.5l-25 -131q-4 -32 -34 -32h-423q-24 0 -24 19v4q0 5 1 7q-69 -40 -151 -40q-137 0 -241 101.5t-104 259.5q0 165 90 267t237 102q92 0 170 -45q-2 8 -2 12v4q0 19 24 19h397q16 0 24 -7t11 -24l20 -118q5 -28 -25 -28h-11q-15 0 -31 17
t-28.5 37t-32.5 37t-43 17h-95q-45 0 -45 -48v-202h109q18 0 32 12.5t21 27.5t16 27.5t18 12.5h9q19 0 19 -24v-178q0 -24 -19 -24h-9q-9 0 -18 12t-16 26t-21 26t-32 12h-109v-187q0 -64 59 -64h103q28 0 51 18t35 40t27 40t29 18h18zM431 65q54 0 84 37t30 106
q0 79 -33.5 181t-89 179t-110.5 77q-53 0 -82 -38t-29 -108q0 -90 33 -191.5t87.5 -172t109.5 -70.5z" />
    <glyph glyph-name="oe" unicode="&#x153;" horiz-adv-x="849" 
d="M795 158q11 11 24.5 6.5t12.5 -20.5q-3 -50 -58.5 -102t-144.5 -52q-102 0 -169 61q-72 -61 -165 -61q-111 0 -192.5 71t-81.5 180q0 108 80.5 178.5t192.5 70.5q93 0 166 -62q70 62 165 62q92 0 143 -42t51 -95q0 -42 -39 -62l-199 -112q41 -65 114 -65q60 0 100 44z
M610 441q-30 0 -48.5 -30t-18.5 -75q0 -60 15 -106l93 55q26 18 26 53q0 33 -17 68t-50 35zM319 40q64 0 64 120q0 29 -7.5 73.5t-21.5 92t-38.5 81t-53.5 33.5q-64 0 -64 -121q0 -34 8 -79.5t22 -91.5t38 -77t53 -31z" />
    <glyph glyph-name="Racute" unicode="&#x154;" horiz-adv-x="701" 
d="M248 774q-29 -2 -38 20q-10 26 14 40l192 103q21 11 36 4t21 -27l20 -72q5 -20 -3 -34t-29 -15zM648 102q1 -20 22 -43t21 -36v-4q0 -19 -24 -19h-211q-24 0 -24 19v4q0 13 15.5 32.5t15.5 38.5q-2 131 -88 177l-111 -1v-161q0 -25 22.5 -49.5t22.5 -36.5v-4
q0 -19 -24 -19h-220q-24 0 -24 19v4q0 12 20 36.5t20 49.5v492q0 25 -20 49.5t-20 36.5v4q0 19 24 19h269q141 0 222 -58t81 -168q0 -46 -29 -93t-79 -78q113 -70 119 -211zM328 338h28q40 0 66 32.5t26 94.5q0 77 -39.5 126t-88.5 49h-18q-17 0 -27.5 -14.5t-10.5 -37.5
v-170q0 -80 64 -80z" />
    <glyph glyph-name="racute" unicode="&#x155;" horiz-adv-x="454" 
d="M152 546q-29 -7 -41 13q-14 24 7 42l171 134q19 14 35 10.5t25 -22.5l32 -68q10 -18 3.5 -33.5t-26.5 -20.5zM360 490q43 0 68.5 -28t25.5 -71q0 -94 -77 -94q-31 0 -47 14.5t-18.5 32.5t-10.5 32.5t-24 14.5q-37 0 -37 -96v-186q0 -25 26.5 -49.5t26.5 -36.5v-4
q0 -19 -24 -19h-215q-24 0 -24 19v4q0 12 20 36.5t20 49.5v199q0 20 -12 34t-24 24t-12 22v3q0 17 23 29l141 66q20 7 28 1t8 -23v-73q34 99 138 99z" />
    <glyph glyph-name="uni0156" unicode="&#x156;" horiz-adv-x="701" 
d="M648 102q1 -20 22 -43t21 -36v-4q0 -19 -24 -19h-211q-24 0 -24 19v4q0 13 15.5 32.5t15.5 38.5q-2 131 -88 177l-111 -1v-161q0 -25 22.5 -49.5t22.5 -36.5v-4q0 -19 -24 -19h-220q-24 0 -24 19v4q0 12 20 36.5t20 49.5v492q0 25 -20 49.5t-20 36.5v4q0 19 24 19h269
q141 0 222 -58t81 -168q0 -46 -29 -93t-79 -78q113 -70 119 -211zM328 338h28q40 0 66 32.5t26 94.5q0 77 -39.5 126t-88.5 49h-18q-17 0 -27.5 -14.5t-10.5 -37.5v-170q0 -80 64 -80zM365 -12q39 0 66.5 -29t27.5 -78q0 -116 -131 -195q-15 -9 -27.5 4.5t-0.5 25.5
q28 28 39 43t12 33q2 19 -11 19q-27 0 -45.5 23.5t-18.5 58.5q0 42 24.5 68.5t64.5 26.5z" />
    <glyph glyph-name="uni0157" unicode="&#x157;" horiz-adv-x="454" 
d="M360 490q43 0 68.5 -28t25.5 -71q0 -94 -77 -94q-31 0 -47 14.5t-18.5 32.5t-10.5 32.5t-24 14.5q-37 0 -37 -96v-186q0 -25 26.5 -49.5t26.5 -36.5v-4q0 -19 -24 -19h-215q-24 0 -24 19v4q0 12 20 36.5t20 49.5v199q0 20 -12 34t-24 24t-12 22v3q0 17 23 29l141 66
q20 7 28 1t8 -23v-73q34 99 138 99zM155 -30q39 0 66.5 -28.5t27.5 -78.5q0 -115 -131 -194q-15 -9 -27.5 4t-0.5 26q27 27 38 42t13 33q2 20 -12 20q-26 0 -44.5 23.5t-18.5 58.5q0 42 24 68t65 26z" />
    <glyph glyph-name="Rcaron" unicode="&#x158;" horiz-adv-x="701" 
d="M266 767l-107 104q-15 15 2 32t34 9l143 -69l140 69q18 9 34 -9.5t2 -31.5l-114 -105q-19 -18 -47 -18h-40q-27 0 -47 19zM648 102q1 -20 22 -43t21 -36v-4q0 -19 -24 -19h-211q-24 0 -24 19v4q0 13 15.5 32.5t15.5 38.5q-2 131 -88 177l-111 -1v-161q0 -25 22.5 -49.5
t22.5 -36.5v-4q0 -19 -24 -19h-220q-24 0 -24 19v4q0 12 20 36.5t20 49.5v492q0 25 -20 49.5t-20 36.5v4q0 19 24 19h269q141 0 222 -58t81 -168q0 -46 -29 -93t-79 -78q113 -70 119 -211zM328 338h28q40 0 66 32.5t26 94.5q0 77 -39.5 126t-88.5 49h-18q-17 0 -27.5 -14.5
t-10.5 -37.5v-170q0 -80 64 -80z" />
    <glyph glyph-name="rcaron" unicode="&#x159;" horiz-adv-x="454" 
d="M171 564l-107 112q-14 16 2.5 33.5t33.5 9.5l143 -74l141 74q17 9 33.5 -10.5t2.5 -32.5l-114 -113q-20 -19 -48 -19h-39q-28 0 -48 20zM360 490q43 0 68.5 -28t25.5 -71q0 -94 -77 -94q-31 0 -47 14.5t-18.5 32.5t-10.5 32.5t-24 14.5q-37 0 -37 -96v-186
q0 -25 26.5 -49.5t26.5 -36.5v-4q0 -19 -24 -19h-215q-24 0 -24 19v4q0 12 20 36.5t20 49.5v199q0 20 -12 34t-24 24t-12 22v3q0 17 23 29l141 66q20 7 28 1t8 -23v-73q34 99 138 99z" />
    <glyph glyph-name="Sacute" unicode="&#x15a;" horiz-adv-x="635" 
d="M235 774q-29 -2 -38 20q-10 26 14 40l192 103q21 11 36 4t20 -27l21 -72q5 -20 -3 -34t-30 -15zM330 -10q-131 0 -217 56t-86 126q0 71 72 71q29 0 51 -19.5t37 -47t32 -55t47 -46.5t71 -19q44 0 69.5 22t25.5 61t-21.5 65.5t-56 41t-76.5 26t-84 27t-76.5 38t-56.5 65
t-22 101.5q0 96 74 156t197 60q121 0 204.5 -54.5t82.5 -124.5q0 -34 -19.5 -53.5t-56.5 -19.5q-33 0 -56 19.5t-36.5 46.5t-27 54.5t-37 47t-57.5 19.5q-45 0 -69 -24.5t-24 -63.5q0 -43 21.5 -72.5t56 -45.5t76.5 -28.5t83.5 -27.5t76 -36.5t56 -61.5t21.5 -97
q0 -95 -79.5 -151t-195.5 -56z" />
    <glyph glyph-name="sacute" unicode="&#x15b;" horiz-adv-x="484" 
d="M152 546q-29 -7 -41 13q-14 24 7 42l171 134q19 14 35 10.5t25 -22.5l32 -68q10 -18 3.5 -33.5t-26.5 -20.5zM243 -9q-96 0 -158 32.5t-62 84.5q0 32 19.5 48t51.5 16q34 0 54 -21.5t27 -47t24 -47t44 -21.5q54 0 54 55q0 36 -27.5 57t-66.5 32t-77.5 25t-66 47t-27.5 87
q0 67 59 109.5t152 42.5t151.5 -35t58.5 -85q0 -26 -19.5 -43.5t-47.5 -17.5q-33 0 -52 21t-25.5 46.5t-20 46.5t-36.5 21q-22 0 -34.5 -17t-12.5 -40q0 -37 26.5 -60t64 -35t75 -26t64 -45.5t26.5 -82.5q0 -64 -58.5 -105.5t-159.5 -41.5z" />
    <glyph glyph-name="Scedilla" unicode="&#x15e;" horiz-adv-x="635" 
d="M605 197q0 -89 -69.5 -144t-175.5 -62l-2 -42q51 2 89 -19.5t38 -65.5t-42 -67t-104 -23q-56 0 -88 14q-22 10 -18 40q3 21 16 19q2 0 4 -1q22 -12 58 -12q22 0 36.5 9.5t14.5 27.5t-18.5 26t-40.5 8q-31 0 -26 30l11 57q-115 9 -188 62.5t-73 117.5q0 71 72 71
q29 0 51 -19.5t37 -47t32 -55t47 -46.5t71 -19q44 0 69.5 22t25.5 61t-21.5 65.5t-56 41t-76.5 26t-84 27t-76.5 38t-56.5 65t-22 101.5q0 96 74 156t197 60q121 0 204.5 -54.5t82.5 -124.5q0 -34 -19.5 -53.5t-56.5 -19.5q-33 0 -56 19.5t-36.5 46.5t-27 54.5t-37 47
t-57.5 19.5q-45 0 -69 -24.5t-24 -63.5q0 -43 21.5 -72.5t56 -45.5t76.5 -28.5t83.5 -27.5t76 -36.5t56 -61.5t21.5 -97z" />
    <glyph glyph-name="scedilla" unicode="&#x15f;" horiz-adv-x="484" 
d="M461 138q0 -58 -47 -97.5t-131 -47.5l-2 -44q51 2 89 -19.5t38 -65.5t-42 -67t-104 -23q-56 0 -88 14q-22 11 -17 40q3 21 16 19q2 0 4 -1q21 -12 57 -12q22 0 36.5 9.5t14.5 27.5t-18.5 26t-40.5 8q-31 0 -26 30l12 57q-84 5 -136.5 37t-52.5 79q0 32 19.5 48t51.5 16
q34 0 54 -21.5t27 -47t24 -47t44 -21.5q54 0 54 55q0 36 -27.5 57t-66.5 32t-77.5 25t-66 47t-27.5 87q0 67 59 109.5t152 42.5t151.5 -35t58.5 -85q0 -26 -19.5 -43.5t-47.5 -17.5q-33 0 -52 21t-25.5 46.5t-20 46.5t-36.5 21q-22 0 -34.5 -17t-12.5 -40q0 -37 26.5 -60
t64 -35t75 -26t64 -45.5t26.5 -82.5z" />
    <glyph glyph-name="Scaron" unicode="&#x160;" horiz-adv-x="635" 
d="M249 767l-107 104q-14 15 3 32t34 9l143 -70l140 70q17 9 33.5 -9.5t2.5 -31.5l-114 -105q-21 -18 -47 -18h-40q-28 0 -48 19zM214 566q0 -43 21.5 -72.5t56 -45.5t76.5 -28.5t83.5 -27.5t76 -36.5t56 -61.5t21.5 -97q0 -95 -79.5 -151t-195.5 -56q-131 0 -217 56
t-86 126q0 71 72 71q29 0 51 -19.5t37 -47t32 -55t47 -46.5t71 -19q44 0 69.5 22t25.5 61t-21.5 65.5t-56 41t-76.5 26t-84 27t-76.5 38t-56.5 65t-22 101.5q0 96 74 156t197 60q121 0 204.5 -54.5t82.5 -124.5q0 -34 -19.5 -53.5t-56.5 -19.5q-33 0 -56 19.5t-36.5 46.5
t-27 54.5t-37 47t-57.5 19.5q-45 0 -69 -24.5t-24 -63.5z" />
    <glyph glyph-name="scaron" unicode="&#x161;" horiz-adv-x="484" 
d="M171 564l-107 112q-14 16 2.5 33.5t33.5 9.5l143 -74l141 74q17 9 33.5 -10.5t2.5 -32.5l-114 -113q-20 -19 -48 -19h-39q-28 0 -48 20zM205 387q0 -37 26.5 -60t64 -35t75 -26t64 -45.5t26.5 -82.5q0 -64 -58.5 -105.5t-159.5 -41.5q-96 0 -158 32.5t-62 84.5
q0 32 19.5 48t51.5 16q34 0 54 -21.5t27 -47t24 -47t44 -21.5q54 0 54 55q0 36 -27.5 57t-66.5 32t-77.5 25t-66 47t-27.5 87q0 67 59 109.5t152 42.5t151.5 -35t58.5 -85q0 -26 -19.5 -43.5t-47.5 -17.5q-33 0 -52 21t-25.5 46.5t-20 46.5t-36.5 21q-22 0 -34.5 -17
t-12.5 -40z" />
    <glyph glyph-name="uni0162" unicode="&#x162;" horiz-adv-x="641" 
d="M632 542q2 -13 -5 -20.5t-20 -7.5h-17q-15 0 -30 19t-26 41.5t-30 41.5t-42 19h-52v-526q0 -25 21.5 -49.5t21.5 -36.5v-4q0 -19 -24 -19h-71l-2 -51q51 2 89 -19.5t38 -65.5t-42 -67t-104 -23q-56 0 -88 14q-22 10 -18 40q3 21 16 19q2 0 4 -1q22 -12 58 -12
q22 0 36.5 9.5t14.5 27.5t-18.5 26t-40.5 8q-31 0 -26 30l13 65h-78q-23 0 -23 19v4q0 12 21.5 36.5t21.5 49.5v526h-53q-23 0 -41.5 -19t-29 -41.5t-25.5 -41.5t-30 -19h-17q-28 0 -25 29l20 136q3 31 34 31h514q30 0 34 -31z" />
    <glyph glyph-name="uni0163" unicode="&#x163;" horiz-adv-x="403" 
d="M247 -51q51 2 89 -19.5t38 -65.5t-42 -67t-104 -23q-56 0 -88 14q-22 11 -17 40q3 21 16 19q2 0 4 -1q21 -12 57 -12q22 0 36.5 9.5t14.5 27.5t-18.5 26t-40.5 8q-31 0 -26 30l13 62q-51 15 -80 61t-29 117v237h-38q-10 0 -16.5 6.5t-6.5 16.5v22q0 23 23 23h19
q46 0 79 27.5t43 73.5q5 26 27 26h23q27 0 27 -26v-101h103q10 0 16.5 -6.5t6.5 -16.5v-22q0 -10 -6.5 -16.5t-16.5 -6.5h-103v-240q0 -25 13 -39.5t32 -14.5q43 0 66 37q7 9 16 10.5t15.5 -3.5t6.5 -14q0 -59 -40 -105.5t-110 -51.5z" />
    <glyph glyph-name="Tcaron" unicode="&#x164;" horiz-adv-x="641" 
d="M250 767l-107 104q-15 15 2 32t34 9l143 -70l140 70q18 9 34 -9.5t2 -31.5l-114 -105q-21 -18 -47 -18h-40q-28 0 -47 19zM632 542q2 -13 -5 -20.5t-20 -7.5h-17q-15 0 -30 19t-26 41.5t-30 41.5t-42 19h-52v-526q0 -25 21.5 -49.5t21.5 -36.5v-4q0 -19 -24 -19h-219
q-23 0 -23 19v4q0 12 21.5 36.5t21.5 49.5v526h-53q-23 0 -41.5 -19t-29 -41.5t-25.5 -41.5t-30 -19h-17q-28 0 -25 29l20 136q3 31 34 31h514q30 0 34 -31z" />
    <glyph glyph-name="tcaron" unicode="&#x165;" horiz-adv-x="403" 
d="M320 535l-11 7q-18 14 -3 34q50 65 50 189q0 12 7.5 20.5t18.5 8.5h68q30 0 30 -29q0 -76 -34.5 -137t-85.5 -92q-23 -13 -40 -1zM233 -10q-76 0 -119.5 48t-43.5 137v237h-38q-10 0 -16.5 6.5t-6.5 16.5v22q0 23 23 23h19q46 0 79 27.5t43 73.5q5 26 27 26h23
q27 0 27 -26v-101h103q10 0 16.5 -6.5t6.5 -16.5v-22q0 -10 -6.5 -16.5t-16.5 -6.5h-103v-240q0 -25 13 -39.5t32 -14.5q43 0 66 37q7 9 16 10.5t15.5 -3.5t6.5 -14q0 -63 -44.5 -110.5t-121.5 -47.5z" />
    <glyph glyph-name="Tbar" unicode="&#x166;" horiz-adv-x="642" 
d="M632 542q2 -13 -4.5 -20.5t-19.5 -7.5h-17q-16 0 -31 19t-26 41.5t-29.5 41.5t-41.5 19h-53v-238h68q18 0 18 -17v-30q0 -20 -18 -20h-68v-221q0 -25 22 -49.5t22 -36.5v-4q0 -19 -24 -19h-219q-23 0 -23 19v4q0 12 21 36.5t21 49.5v221h-70q-17 0 -17 16v34q0 17 17 17
h70v238h-52q-23 0 -41.5 -19t-29 -41.5t-25.5 -41.5t-30 -19h-17q-13 0 -20 8t-5 21l19 136q4 31 35 31h513q31 0 35 -31z" />
    <glyph glyph-name="tbar" unicode="&#x167;" horiz-adv-x="411" 
d="M366 155q7 9 16 10.5t15.5 -3.5t6.5 -14q0 -63 -44.5 -110.5t-121.5 -47.5q-75 0 -119 48t-44 137v83h-41q-17 0 -17 16v34q0 17 17 17h41v87h-38q-9 0 -15.5 6.5t-6.5 16.5v22q0 23 22 23h19q46 0 79 27.5t43 73.5q5 26 27 26h24q26 0 26 -26v-101h103q10 0 16.5 -6.5
t6.5 -16.5v-22q0 -10 -6.5 -16.5t-16.5 -6.5h-103v-87h97q18 0 18 -17v-30q0 -20 -18 -20h-97v-86q0 -25 13 -39.5t33 -14.5q44 0 65 37z" />
    <glyph glyph-name="Utilde" unicode="&#x168;" horiz-adv-x="764" 
d="M208 770q-8 0 -12.5 6t-2.5 17q10 48 41.5 81.5t76.5 33.5q39 0 89.5 -23.5t68.5 -23.5q29 0 45 22q11 14 25 14h7q21 0 16 -23q-11 -51 -41.5 -84t-73.5 -33q-34 0 -86.5 25t-75.5 25t-39 -19q-2 -3 -5 -6.5t-4 -5t-3.5 -3.5t-5.5 -2.5t-8 -0.5h-12zM686 110
q0 -27 7 -41t15.5 -15.5t15.5 -7t7 -19.5q0 -33 -104 -33q-51 0 -72.5 19.5t-24.5 79.5q-53 -103 -211 -103q-114 0 -182 71.5t-68 199.5v319q0 26 -20 50t-20 34v4q0 20 23 23l157 20q48 6 48 -20l-3 -456q-1 -85 30.5 -132t85.5 -47q71 0 105.5 51t34.5 129v344
q0 26 -24.5 50t-24.5 34v4q0 8 10.5 14.5t21.5 8.5l148 20q45 6 45 -20v-581z" />
    <glyph glyph-name="utilde" unicode="&#x169;" horiz-adv-x="596" 
d="M131 584q-9 0 -13.5 6t-2.5 17q10 48 41.5 81.5t76.5 33.5q39 0 89.5 -23.5t68.5 -23.5q31 0 45 22q11 14 25 14h7q22 0 17 -23q-12 -51 -42.5 -84t-73.5 -33q-34 0 -86.5 25t-75.5 25t-39 -19q-1 -2 -3.5 -5.5t-3.5 -4.5l-3 -3t-4 -3t-5 -1.5t-7 -0.5h-11zM536 110
q0 -27 6.5 -41t15 -15.5t15 -7.5t6.5 -19q0 -19 -25.5 -26t-77.5 -7q-47 0 -68.5 13t-25.5 45q-40 -62 -141 -62q-80 0 -133.5 52.5t-53.5 144.5v167q0 26 -20 50t-20 34v4q0 20 23 23l149 20q47 6 47 -20l-3 -296q-1 -60 14.5 -86.5t49.5 -26.5q28 0 47 27.5t19 72.5v198
q0 26 -20 50t-20 34v4q0 20 23 23l149 20q44 6 44 -20v-355z" />
    <glyph glyph-name="Umacron" unicode="&#x16a;" horiz-adv-x="764" 
d="M228 790q-24 0 -24 24v61q0 23 24 23h283q24 0 24 -23v-61q0 -24 -24 -24h-283zM686 110q0 -27 7 -41t15.5 -15.5t15.5 -7t7 -19.5q0 -33 -104 -33q-51 0 -72.5 19.5t-24.5 79.5q-53 -103 -211 -103q-114 0 -182 71.5t-68 199.5v319q0 26 -20 50t-20 34v4q0 20 23 23
l157 20q48 6 48 -20l-3 -456q-1 -85 30.5 -132t85.5 -47q71 0 105.5 51t34.5 129v344q0 26 -24.5 50t-24.5 34v4q0 8 10.5 14.5t21.5 8.5l148 20q45 6 45 -20v-581z" />
    <glyph glyph-name="umacron" unicode="&#x16b;" horiz-adv-x="596" 
d="M160 577q-24 0 -24 24v60q0 24 24 24h283q24 0 24 -24v-60q0 -24 -24 -24h-283zM536 110q0 -27 6.5 -41t15 -15.5t15 -7.5t6.5 -19q0 -19 -25.5 -26t-77.5 -7q-47 0 -68.5 13t-25.5 45q-40 -62 -141 -62q-80 0 -133.5 52.5t-53.5 144.5v167q0 26 -20 50t-20 34v4
q0 20 23 23l149 20q47 6 47 -20l-3 -296q-1 -60 14.5 -86.5t49.5 -26.5q28 0 47 27.5t19 72.5v198q0 26 -20 50t-20 34v4q0 20 23 23l149 20q44 6 44 -20v-355z" />
    <glyph glyph-name="Uring" unicode="&#x16e;" horiz-adv-x="764" 
d="M375 739q-64 0 -106.5 31t-42.5 78q0 53 41.5 84t108.5 31q64 0 106.5 -30.5t42.5 -77.5q0 -53 -41 -84.5t-109 -31.5zM376 912q-47 0 -47 -60q0 -29 13.5 -47t33.5 -18q46 0 46 65q0 28 -13 44t-33 16zM686 110q0 -27 7 -41t15.5 -15.5t15.5 -7t7 -19.5q0 -33 -104 -33
q-51 0 -72.5 19.5t-24.5 79.5q-53 -103 -211 -103q-114 0 -182 71.5t-68 199.5v319q0 26 -20 50t-20 34v4q0 20 23 23l157 20q48 6 48 -20l-3 -456q-1 -85 30.5 -132t85.5 -47q71 0 105.5 51t34.5 129v344q0 26 -24.5 50t-24.5 34v4q0 8 10.5 14.5t21.5 8.5l148 20
q45 6 45 -20v-581z" />
    <glyph glyph-name="uring" unicode="&#x16f;" horiz-adv-x="596" 
d="M301 532q-64 0 -106.5 31.5t-42.5 77.5q0 53 41.5 84t108.5 31q64 0 106.5 -30.5t42.5 -77.5q0 -52 -41 -84t-109 -32zM302 706q-47 0 -47 -61q0 -29 13.5 -47t33.5 -18q46 0 46 65q0 29 -13 45t-33 16zM536 110q0 -27 6.5 -41t15 -15.5t15 -7.5t6.5 -19q0 -19 -25.5 -26
t-77.5 -7q-47 0 -68.5 13t-25.5 45q-40 -62 -141 -62q-80 0 -133.5 52.5t-53.5 144.5v167q0 26 -20 50t-20 34v4q0 20 23 23l149 20q47 6 47 -20l-3 -296q-1 -60 14.5 -86.5t49.5 -26.5q28 0 47 27.5t19 72.5v198q0 26 -20 50t-20 34v4q0 20 23 23l149 20q44 6 44 -20v-355z
" />
    <glyph glyph-name="Uhungarumlaut" unicode="&#x170;" horiz-adv-x="764" 
d="M217 732q-11 10 2 33l104 177q26 43 58 11l36 -34q17 -15 18 -31t-17 -28l-168 -125q-20 -14 -33 -3zM431 732q-11 11 2 33l105 177q25 42 58 11l35 -34q37 -34 1 -59l-168 -125q-20 -15 -33 -3zM686 110q0 -27 7 -41t15.5 -15.5t15.5 -7t7 -19.5q0 -33 -104 -33
q-51 0 -72.5 19.5t-24.5 79.5q-53 -103 -211 -103q-114 0 -182 71.5t-68 199.5v319q0 26 -20 50t-20 34v4q0 20 23 23l157 20q48 6 48 -20l-3 -456q-1 -85 30.5 -132t85.5 -47q71 0 105.5 51t34.5 129v344q0 26 -24.5 50t-24.5 34v4q0 8 10.5 14.5t21.5 8.5l148 20
q45 6 45 -20v-581z" />
    <glyph glyph-name="uhungarumlaut" unicode="&#x171;" horiz-adv-x="596" 
d="M105 538q-11 10 2 33l104 177q26 42 59 11l35 -34q17 -15 18 -31t-17 -28l-168 -125q-20 -15 -33 -3zM319 538q-10 10 2 33l105 177q25 42 58 11l36 -34q36 -35 0 -59l-168 -125q-20 -15 -33 -3zM536 110q0 -27 6.5 -41t15 -15.5t15 -7.5t6.5 -19q0 -19 -25.5 -26
t-77.5 -7q-47 0 -68.5 13t-25.5 45q-40 -62 -141 -62q-80 0 -133.5 52.5t-53.5 144.5v167q0 26 -20 50t-20 34v4q0 20 23 23l149 20q47 6 47 -20l-3 -296q-1 -60 14.5 -86.5t49.5 -26.5q28 0 47 27.5t19 72.5v198q0 26 -20 50t-20 34v4q0 20 23 23l149 20q44 6 44 -20v-355z
" />
    <glyph glyph-name="Uogonek" unicode="&#x172;" horiz-adv-x="764" 
d="M685 -3q-49 -63 -49 -113q-1 -45 29 -45q7 0 17 3q21 7 28 -17q8 -27 -13 -43l-8 -4q-18 -9 -55 -9q-48 0 -85 22t-37 70q0 73 100 133q-42 2 -61 23t-21 76q-53 -103 -211 -103q-114 0 -182 71.5t-68 199.5v319q0 26 -20 50t-20 34v4q0 20 23 23l157 20q48 6 48 -20
l-3 -456q-1 -85 30.5 -132t85.5 -47q71 0 105.5 51t34.5 129v344q0 26 -24.5 50t-24.5 34v4q0 8 10.5 14.5t21.5 8.5l148 20q45 6 45 -20v-581q0 -27 7 -41t15.5 -15.5t15.5 -7t7 -19.5q0 -24 -46 -30z" />
    <glyph glyph-name="uogonek" unicode="&#x173;" horiz-adv-x="596" 
d="M521 -4q-41 -59 -41 -103q-1 -45 29 -45q9 0 18 4q20 7 27 -17q8 -27 -12 -43q-4 -3 -9 -5q-20 -8 -55 -8q-49 0 -85 22t-36 70q0 70 87 125q-30 4 -44.5 17t-17.5 39q-40 -62 -141 -62q-80 0 -133.5 52.5t-53.5 144.5v167q0 26 -20 50t-20 34v4q0 20 23 23l149 20
q47 6 47 -20l-3 -296q-1 -60 14.5 -86.5t49.5 -26.5q28 0 47 27.5t19 72.5v198q0 26 -20 50t-20 34v4q0 20 23 23l149 20q44 6 44 -20v-355q0 -27 6.5 -41t15 -15.5t15 -7.5t6.5 -19q0 -26 -58 -31z" />
    <glyph glyph-name="Wcircumflex" unicode="&#x174;" horiz-adv-x="992" 
d="M383 759q-21 -11 -40 7.5t3 43.5l110 114q19 20 48 20h34q29 0 48 -19l122 -115q23 -23 6.5 -44.5t-47.5 -6.5l-150 73zM972 710q24 0 24 -19v-4q0 -14 -25 -36t-36 -50l-221 -551q-20 -50 -61 -50q-47 0 -65 46l-71 183l-77 -179q-22 -50 -68 -50q-50 0 -71 46l-248 554
q-12 27 -38 50t-26 37v4q0 19 24 19h235q23 0 23 -19v-4q0 -11 -13.5 -24.5t-21 -24.5t0.5 -38l171 -412l64 155l-100 258q-11 27 -32.5 49.5t-21.5 36.5v4q0 19 23 19h148q24 0 31 -23l43 -127l54 128q9 22 33 22h84q24 0 24 -19v-4q0 -12 -14 -19.5t-34 -21t-29 -35.5
l-75 -176l76 -223l155 389q8 19 -1.5 34t-23.5 28t-14 24v4q0 19 24 19h150z" />
    <glyph glyph-name="wcircumflex" unicode="&#x175;" horiz-adv-x="818" 
d="M285 539q-21 -11 -40 7.5t3 43.5l110 114q19 20 48 20h35q27 0 47 -19l122 -115q24 -23 7 -44.5t-48 -6.5l-150 73zM684 490q51 0 79.5 -39t28.5 -115q0 -159 -71 -252.5t-184 -93.5q-98 0 -141 78q-54 -78 -160 -78q-33 0 -62 9.5t-57.5 32t-45 67.5t-16.5 108v147
q0 26 -20 50t-20 34v4q0 8 6 15t16 8l149 20q48 6 48 -29l-4 -322q-1 -35 12 -56.5t35 -21.5q43 0 66.5 61t23.5 133v104q0 26 -20 50t-20 34v4q0 20 23 23l137 21q47 8 47 -30l-3 -318q-2 -82 47 -82t88 64.5t39 130.5q0 28 -15.5 49.5t-33.5 33.5t-33.5 34.5t-15.5 51.5
q0 31 21 50.5t56 19.5z" />
    <glyph glyph-name="Ycircumflex" unicode="&#x176;" horiz-adv-x="696" 
d="M220 759q-21 -11 -40 7.5t3 43.5l110 114q19 20 48 20h35q28 0 47 -19l122 -115q24 -23 7 -44.5t-48 -6.5l-150 73zM667 710q23 0 23 -19v-4q0 -14 -26 -37t-40 -49l-173 -310v-182q0 -25 22 -49.5t22 -36.5v-4q0 -19 -24 -19h-220q-24 0 -24 19v4q0 12 20 36.5t20 49.5
v166l-202 326q-13 20 -31 36.5t-28 27t-10 22.5v4q0 19 24 19h271q24 0 24 -19v-4q0 -11 -16 -24t-26.5 -28t-0.5 -34l133 -240l132 240q11 20 0.5 35t-27 27.5t-16.5 23.5v4q0 19 24 19h149z" />
    <glyph glyph-name="ycircumflex" unicode="&#x177;" horiz-adv-x="571" 
d="M161 544q-21 -11 -40 7t3 44l110 113q19 21 48 21h34q28 0 48 -20l122 -114q23 -23 6.5 -45t-47.5 -6l-150 73zM485 486q44 6 44 -21v-402q0 -127 -78 -195t-195 -68q-89 0 -154 39t-65 103q0 28 19 47t52 19q28 0 47 -16.5t29.5 -39.5t20 -46.5t27 -40t43.5 -17.5
q79 -2 79 187v1q-44 -36 -120 -36q-74 0 -127 52t-53 135v167q0 26 -20 50t-20 34v4q0 20 23 23l149 20q47 6 47 -20l-3 -296q-1 -103 57 -103q28 0 47.5 26t19.5 65v197q0 26 -20.5 50t-20.5 34v4q0 20 23 23z" />
    <glyph glyph-name="Ydieresis" unicode="&#x178;" horiz-adv-x="696" 
d="M242 767q-46 0 -74.5 26t-28.5 65t28.5 64.5t74.5 25.5q45 0 73.5 -25.5t28.5 -64.5t-28.5 -65t-73.5 -26zM491 767q-45 0 -73.5 26t-28.5 65t28.5 64.5t73.5 25.5t74 -25.5t29 -64.5t-29 -65t-74 -26zM667 710q23 0 23 -19v-4q0 -14 -26 -37t-40 -49l-173 -310v-182
q0 -25 22 -49.5t22 -36.5v-4q0 -19 -24 -19h-220q-24 0 -24 19v4q0 12 20 36.5t20 49.5v166l-202 326q-13 20 -31 36.5t-28 27t-10 22.5v4q0 19 24 19h271q24 0 24 -19v-4q0 -11 -16 -24t-26.5 -28t-0.5 -34l133 -240l132 240q11 20 0.5 35t-27 27.5t-16.5 23.5v4
q0 19 24 19h149z" />
    <glyph glyph-name="Zacute" unicode="&#x179;" horiz-adv-x="632" 
d="M242 774q-29 -2 -38 20q-10 26 14 40l192 103q21 11 36 4t20 -27l21 -72q5 -20 -3 -34t-30 -15zM601 203q30 0 23 -28l-31 -151q-7 -24 -25 -24h-526q-10 0 -18 7t-8 17v13q0 6 3.5 13t9.5 16l8 12l343 563h-187q-19 0 -37.5 -19.5t-31.5 -42.5t-32.5 -42.5t-39.5 -19.5
h-6q-36 0 -27 37l28 125q4 17 11.5 24t23.5 7h496q10 0 17 -7t7 -17v-13q0 -5 -26 -51l-332 -553h190q26 0 50 21t40 46t36 46t37 21h4z" />
    <glyph glyph-name="zacute" unicode="&#x17a;" horiz-adv-x="513" 
d="M192 546q-27 -7 -41 13q-13 24 7 42l172 134q38 30 59 -12l33 -68q10 -18 3.5 -33.5t-27.5 -20.5zM483 160q30 0 21 -31l-30 -105q-7 -24 -25 -24h-401q-10 0 -18 7t-8 17v13q0 11 22 41l235 358h-85q-22 0 -43 -16.5t-34 -36.5t-31 -36.5t-36 -16.5h-6q-16 0 -22 11
t-1 27l27 81q6 18 12.5 24.5t22.5 6.5h372q10 0 16.5 -5.5t6.5 -13.5v-10q0 -10 -31 -59l-228 -348h96q26 0 50.5 18t40 40t34.5 40t36 18h7z" />
    <glyph glyph-name="Zdotaccent" unicode="&#x17b;" horiz-adv-x="632" 
d="M338 753q-47 0 -76 26.5t-29 66.5t29 66t76 26t76 -26t29 -66t-29 -66.5t-76 -26.5zM601 203q30 0 23 -28l-31 -151q-7 -24 -25 -24h-526q-10 0 -18 7t-8 17v13q0 6 3.5 13t9.5 16l8 12l343 563h-187q-19 0 -37.5 -19.5t-31.5 -42.5t-32.5 -42.5t-39.5 -19.5h-6
q-36 0 -27 37l28 125q4 17 11.5 24t23.5 7h496q10 0 17 -7t7 -17v-13q0 -5 -26 -51l-332 -553h190q26 0 50 21t40 46t36 46t37 21h4z" />
    <glyph glyph-name="zdotaccent" unicode="&#x17c;" horiz-adv-x="513" 
d="M281 539q-51 0 -83 28.5t-32 71.5t32 71.5t83 28.5q50 0 81.5 -28.5t31.5 -71.5t-31.5 -71.5t-81.5 -28.5zM483 160q30 0 21 -31l-30 -105q-7 -24 -25 -24h-401q-10 0 -18 7t-8 17v13q0 11 22 41l235 358h-85q-22 0 -43 -16.5t-34 -36.5t-31 -36.5t-36 -16.5h-6
q-16 0 -22 11t-1 27l27 81q6 18 12.5 24.5t22.5 6.5h372q10 0 16.5 -5.5t6.5 -13.5v-10q0 -10 -31 -59l-228 -348h96q26 0 50.5 18t40 40t34.5 40t36 18h7z" />
    <glyph glyph-name="Zcaron" unicode="&#x17d;" horiz-adv-x="632" 
d="M260 767l-107 104q-15 15 2 32t34 9l143 -70l140 70q18 9 34 -9.5t2 -31.5l-114 -105q-21 -18 -47 -18h-40q-28 0 -47 19zM601 203q30 0 23 -28l-31 -151q-7 -24 -25 -24h-526q-10 0 -18 7t-8 17v13q0 6 3.5 13t9.5 16l8 12l343 563h-187q-19 0 -37.5 -19.5t-31.5 -42.5
t-32.5 -42.5t-39.5 -19.5h-6q-36 0 -27 37l28 125q4 17 11.5 24t23.5 7h496q10 0 17 -7t7 -17v-13q0 -5 -26 -51l-332 -553h190q26 0 50 21t40 46t36 46t37 21h4z" />
    <glyph glyph-name="zcaron" unicode="&#x17e;" horiz-adv-x="513" 
d="M211 564l-107 112q-15 16 2 33.5t34 9.5l143 -74l140 74q18 9 34 -10.5t2 -32.5l-114 -113q-19 -19 -47 -19h-40q-27 0 -47 20zM483 160q30 0 21 -31l-30 -105q-7 -24 -25 -24h-401q-10 0 -18 7t-8 17v13q0 11 22 41l235 358h-85q-22 0 -43 -16.5t-34 -36.5t-31 -36.5
t-36 -16.5h-6q-16 0 -22 11t-1 27l27 81q6 18 12.5 24.5t22.5 6.5h372q10 0 16.5 -5.5t6.5 -13.5v-10q0 -10 -31 -59l-228 -348h96q26 0 50.5 18t40 40t34.5 40t36 18h7z" />
    <glyph glyph-name="uni01EA" unicode="&#x1ea;" horiz-adv-x="758" 
d="M484 4q-51 -64 -51 -115q-1 -45 28 -45q4 0 18 4q21 7 28 -16q8 -27 -13 -44q-4 -3 -9 -5q-18 -8 -55 -8q-49 0 -85 22t-36 70q0 69 85 123h-14q-146 0 -250 102t-104 259q0 165 97.5 267t255.5 102q146 0 249.5 -105.5t103.5 -264.5q0 -130 -68.5 -222t-179.5 -124z
M202 499q0 -95 32 -195.5t86.5 -169.5t111.5 -69q54 0 84 38t30 105q0 86 -32 187.5t-87.5 175.5t-112.5 74q-53 0 -82.5 -38t-29.5 -108z" />
    <glyph glyph-name="uni01EB" unicode="&#x1eb;" horiz-adv-x="587" 
d="M345 -6q-40 -56 -40 -101q-1 -45 29 -45q8 0 17 3q21 7 28 -17q8 -27 -13 -43l-8 -4q-18 -9 -55 -9q-49 0 -85.5 22t-36.5 70q0 68 84 122q-105 11 -174.5 80.5t-69.5 168.5q0 108 80 178.5t190 70.5q114 0 194 -71t80 -180q0 -96 -62.5 -163t-157.5 -82zM263 441
q-35 0 -50 -31t-15 -94q0 -33 8 -78t22 -90.5t38.5 -77t52.5 -31.5q64 0 64 123q0 45 -12.5 107t-42 117t-65.5 55z" />
    <glyph glyph-name="AEacute" unicode="&#x1fc;" horiz-adv-x="969" 
d="M520 774q-29 -2 -38 20q-10 26 13 40l192 103q43 22 57 -23l20 -72q6 -20 -2.5 -34t-29.5 -15zM936 186q10 0 15.5 -6.5t3.5 -16.5l-25 -131q-3 -17 -10.5 -24.5t-23.5 -7.5h-436q-25 0 -25 19v4q0 12 20.5 37t20.5 50v61h-251l-37 -62q-10 -24 -4 -35t18.5 -26t12.5 -25
v-4q0 -19 -24 -19h-176q-24 0 -24 19v4q0 12 11.5 22.5t31 26.5t32.5 37l285 471q11 26 4.5 41t-20 34.5t-13.5 28.5v7q0 19 23 19h525q16 0 23.5 -7t10.5 -24l21 -118q2 -13 -5 -20.5t-20 -7.5h-6q-17 0 -35 17t-31.5 37t-35 37t-46.5 17h-61q-46 0 -46 -49v-191h82
q18 0 32.5 12t21.5 27t16.5 27t18.5 12h9q19 0 19 -24v-179q0 -24 -19 -24h-9q-9 0 -18.5 11.5t-16.5 25.5t-21.5 25.5t-32.5 11.5h-82v-191q0 -31 15.5 -48.5t44.5 -17.5h75q28 0 51.5 18.5t36.5 40t30.5 40t34.5 18.5h9zM270 246h206l-1 343z" />
    <glyph glyph-name="aeacute" unicode="&#x1fd;" horiz-adv-x="782" 
d="M339 545q-29 -7 -41 13q-14 24 7 42l171 134q19 14 35 10.5t25 -22.5l32 -68q10 -18 3.5 -33.5t-26.5 -20.5zM728 159q10 12 23.5 7t13.5 -21q-3 -50 -58.5 -102t-144.5 -52q-131 0 -201 97q-8 -41 -44 -69.5t-103 -28.5q-83 0 -136 39t-53 113q0 72 52 112.5t128 40.5
q60 0 101 -26v4q-9 98 -22 133.5t-49 35.5q-23 0 -37 -21t-20 -46t-24.5 -46t-48.5 -21q-31 0 -50.5 18t-19.5 47q0 58 58.5 87.5t141.5 29.5q101 0 166 -56q68 57 159 57q92 0 141.5 -42t49.5 -95q0 -42 -39 -62l-198 -111q41 -66 113 -66q59 0 101 44zM543 442
q-31 0 -49 -30t-18 -75q0 -57 14 -105l93 56q26 17 26 51q0 33 -16.5 68t-49.5 35zM269 41q26 0 39.5 25t12.5 53l-4 39q-4 43 -21 63.5t-41 20.5q-23 0 -37 -18.5t-14 -47.5q0 -57 17.5 -96t47.5 -39z" />
    <glyph glyph-name="Oslashacute" unicode="&#x1fe;" horiz-adv-x="769" 
d="M293 774q-29 -2 -38 20q-11 25 13 40l192 103q21 11 36 4t21 -27l20 -72q6 -20 -2.5 -34t-29.5 -15zM730 647l-68 -65q75 -99 75 -232q0 -160 -101 -260t-250 -100q-140 0 -242 94l-60 -57q-14 -12 -27 0l-26 23q-13 12 5 30l61 58q-65 92 -65 213q0 164 97.5 266.5
t254.5 102.5q130 0 229 -86l64 61q17 17 31 4l26 -24q11 -13 -4 -28zM208 499q0 -104 39 -216l228 219q-33 65 -73.5 104t-81.5 39q-54 0 -83 -38t-29 -108zM552 208q0 105 -46 224l-229 -220q34 -67 76 -107t85 -40q54 0 84 38.5t30 104.5z" />
    <glyph glyph-name="oslashacute" unicode="&#x1ff;" horiz-adv-x="591" 
d="M186 546q-29 -7 -41 13q-14 24 6 42l172 134q38 30 59 -12l33 -68q10 -18 3.5 -33.5t-27.5 -20.5zM505 403q63 -69 63 -164q0 -108 -78 -178.5t-190 -70.5q-96 0 -170 52l-54 -52q-11 -11 -22 0l-25 23q-11 12 2 27l49 47q-56 67 -56 154q0 108 79.5 178.5t190.5 70.5
q89 0 159 -45l54 52q17 15 29 2l22 -21q14 -12 -2 -26zM200 316q0 -44 12 -102l138 132q-36 95 -84 95q-66 0 -66 -125zM322 39q64 0 64 123q0 48 -15 112l-138 -133q36 -102 89 -102z" />
    <glyph glyph-name="uni0218" unicode="&#x218;" horiz-adv-x="635" 
d="M330 -10q-131 0 -217 56t-86 126q0 71 72 71q29 0 51 -19.5t37 -47t32 -55t47 -46.5t71 -19q44 0 69.5 22t25.5 61t-21.5 65.5t-56 41t-76.5 26t-84 27t-76.5 38t-56.5 65t-22 101.5q0 96 74 156t197 60q121 0 204.5 -54.5t82.5 -124.5q0 -34 -19.5 -53.5t-56.5 -19.5
q-33 0 -56 19.5t-36.5 46.5t-27 54.5t-37 47t-57.5 19.5q-45 0 -69 -24.5t-24 -63.5q0 -43 21.5 -72.5t56 -45.5t76.5 -28.5t83.5 -27.5t76 -36.5t56 -61.5t21.5 -97q0 -95 -79.5 -151t-195.5 -56zM284 -331q-15 -9 -27.5 4t-0.5 26q27 27 38 42t13 33q2 20 -12 20
q-26 0 -44.5 23.5t-18.5 58.5q0 42 24 68t65 26q39 0 66.5 -28.5t27.5 -78.5q0 -115 -131 -194z" />
    <glyph glyph-name="uni0219" unicode="&#x219;" horiz-adv-x="484" 
d="M243 -9q-96 0 -158 32.5t-62 84.5q0 32 19.5 48t51.5 16q34 0 54 -21.5t27 -47t24 -47t44 -21.5q54 0 54 55q0 36 -27.5 57t-66.5 32t-77.5 25t-66 47t-27.5 87q0 67 59 109.5t152 42.5t151.5 -35t58.5 -85q0 -26 -19.5 -43.5t-47.5 -17.5q-33 0 -52 21t-25.5 46.5
t-20 46.5t-36.5 21q-22 0 -34.5 -17t-12.5 -40q0 -37 26.5 -60t64 -35t75 -26t64 -45.5t26.5 -82.5q0 -64 -58.5 -105.5t-159.5 -41.5zM207 -331q-15 -9 -27.5 4t-0.5 26q27 27 38 42t13 33q2 20 -12 20q-26 0 -44.5 23.5t-18.5 58.5q0 42 24 68t65 26q39 0 66.5 -28.5
t27.5 -78.5q0 -115 -131 -194z" />
    <glyph glyph-name="uni021A" unicode="&#x21a;" horiz-adv-x="641" 
d="M210 0q-23 0 -23 19v4q0 12 21.5 36.5t21.5 49.5v526h-53q-23 0 -41.5 -19t-29 -41.5t-25.5 -41.5t-30 -19h-17q-28 0 -25 29l20 136q3 31 34 31h514q30 0 34 -31l21 -137q2 -13 -5 -20.5t-20 -7.5h-17q-15 0 -30 19t-26 41.5t-30 41.5t-42 19h-52v-526q0 -25 21.5 -49.5
t21.5 -36.5v-4q0 -19 -24 -19h-219zM283 -331q-15 -9 -27.5 4t-0.5 26q27 27 38 42t13 33q2 20 -12 20q-26 0 -44.5 23.5t-18.5 58.5q0 42 24 68t65 26q39 0 66.5 -28.5t27.5 -78.5q0 -115 -131 -194z" />
    <glyph glyph-name="uni021B" unicode="&#x21b;" horiz-adv-x="403" 
d="M233 -10q-76 0 -119.5 48t-43.5 137v237h-38q-10 0 -16.5 6.5t-6.5 16.5v22q0 23 23 23h19q46 0 79 27.5t43 73.5q5 26 27 26h23q27 0 27 -26v-101h103q10 0 16.5 -6.5t6.5 -16.5v-22q0 -10 -6.5 -16.5t-16.5 -6.5h-103v-240q0 -25 13 -39.5t32 -14.5q43 0 66 37
q7 9 16 10.5t15.5 -3.5t6.5 -14q0 -63 -44.5 -110.5t-121.5 -47.5zM172 -330q-15 -9 -27.5 4.5t-0.5 25.5q27 27 38 42.5t13 33.5q2 19 -11 19q-27 0 -45.5 23.5t-18.5 58.5q0 42 24.5 68.5t64.5 26.5q39 0 66.5 -29t27.5 -78q0 -116 -131 -195z" />
    <glyph glyph-name="uni0237" unicode="&#x237;" horiz-adv-x="294" 
d="M62 -199q-74 0 -117 26.5t-43 80.5q0 32 21 52t53 20q29 0 46 -12.5t24 -31t11.5 -36.5t14 -30.5t26.5 -12.5q16 0 26.5 12t10.5 30q0 25 -10.5 46.5t-22.5 34t-22.5 31t-10.5 39.5v250q0 26 -20 50t-20 34v4q0 11 22 23l152 74q21 9 33.5 2t12.5 -23v-471
q0 -80 -39 -127q-55 -65 -148 -65z" />
    <glyph glyph-name="circumflex" unicode="&#x2c6;" 
d="M384 589q24 -23 7 -45t-48 -6l-150 72l-133 -72q-21 -12 -40.5 6.5t3.5 44.5l110 113q17 20 47 20h35q28 0 47 -19z" />
    <glyph glyph-name="caron" unicode="&#x2c7;" 
d="M345 713q18 9 34 -10.5t2 -33.5l-114 -112q-20 -19 -47 -19h-40q-28 0 -47 20l-107 111q-15 16 2 34t34 10l143 -74z" />
    <glyph glyph-name="breve" unicode="&#x2d8;" 
d="M215 539q-71 0 -119.5 39.5t-56.5 97.5q-3 24 23.5 30.5t35.5 -9.5q12 -24 45 -38.5t72 -14.5t71.5 14.5t44.5 38.5q8 14 34.5 7t24.5 -28q-8 -59 -55 -98t-120 -39z" />
    <glyph glyph-name="dotaccent" unicode="&#x2d9;" 
d="M151 539q-50 0 -82 28.5t-32 71.5t32 71.5t82 28.5t82 -28.5t32 -71.5t-32 -71.5t-82 -28.5z" />
    <glyph glyph-name="ring" unicode="&#x2da;" 
d="M212 525q-63 0 -105.5 31.5t-42.5 77.5q0 53 41 84t108 31q64 0 106.5 -30t42.5 -77q0 -53 -40.5 -85t-109.5 -32zM213 573q47 0 47 65q0 29 -13.5 45t-33.5 16q-47 0 -47 -61q0 -29 13.5 -47t33.5 -18z" />
    <glyph glyph-name="ogonek" unicode="&#x2db;" 
d="M357 -228q-49 0 -85.5 22t-36.5 70q0 78 112 139h64q-52 -64 -52 -116q-1 -45 29 -45q6 0 17 3q21 7 28 -17q8 -27 -13 -43l-8 -4q-18 -9 -55 -9z" />
    <glyph glyph-name="tilde" unicode="&#x2dc;" 
d="M182 716q39 0 89.5 -24t68.5 -24q29 0 45 22q9 14 25 14h7q21 0 16 -23q-11 -50 -41.5 -83t-73.5 -33q-34 0 -86.5 25t-75.5 25q-22 0 -39 -20q-2 -3 -5 -6.5t-4 -5t-3.5 -3.5t-5.5 -2.5t-8 -0.5h-12q-20 0 -15 23q10 49 41.5 82.5t76.5 33.5z" />
    <glyph glyph-name="hungarumlaut" unicode="&#x2dd;" 
d="M66 531q-11 10 2 33l104 177q26 43 58 11l36 -33q38 -35 1 -60l-168 -125q-20 -14 -33 -3zM280 531q-11 11 2 33l105 177q25 42 58 11l35 -34q17 -15 17.5 -31t-16.5 -28l-168 -125q-20 -15 -33 -3z" />
    <glyph glyph-name="gravecomb" unicode="&#x300;" horiz-adv-x="0" 
d="M-254 540l-206 55q-20 5 -26.5 20.5t3.5 33.5l33 68q21 42 59 12l172 -135q21 -17 6 -41q-12 -20 -41 -13z" />
    <glyph glyph-name="acutecomb" unicode="&#x301;" horiz-adv-x="0" 
d="M-403 540q-29 -7 -41 13q-15 25 7 41l171 135q19 14 35 10.5t25 -22.5l32 -68q10 -18 3.5 -33.5t-26.5 -20.5z" />
    <glyph glyph-name="uni0302" unicode="&#x302;" horiz-adv-x="0" 
d="M-24 589q24 -23 7 -45t-48 -6l-150 72l-133 -72q-21 -12 -40.5 6.5t3.5 44.5l110 113q18 20 47 20h35q28 0 47 -19z" />
    <glyph glyph-name="tildecomb" unicode="&#x303;" horiz-adv-x="0" 
d="M-418 716q39 0 89.5 -24t68.5 -24q29 0 45 22q9 14 25 14h7q21 0 16 -23q-11 -50 -41.5 -83t-73.5 -33q-34 0 -86.5 25t-75.5 25q-22 0 -39 -20q-2 -3 -5 -6.5t-4 -5t-3.5 -3.5t-5.5 -2.5t-8 -0.5h-12q-20 0 -15 23q10 49 41.5 82.5t76.5 33.5z" />
    <glyph glyph-name="uni0304" unicode="&#x304;" horiz-adv-x="0" 
d="M-436 570q-24 0 -24 24v60q0 24 24 24h283q24 0 24 -24v-60q0 -24 -24 -24h-283z" />
    <glyph glyph-name="uni0306" unicode="&#x306;" horiz-adv-x="0" 
d="M-232 539q-71 0 -119.5 39.5t-56.5 97.5q-3 24 23.5 30.5t35.5 -9.5q12 -24 45 -38.5t72 -14.5t71.5 14.5t44.5 38.5q8 14 34.5 7t24.5 -28q-8 -59 -55 -98t-120 -39z" />
    <glyph glyph-name="uni0307" unicode="&#x307;" horiz-adv-x="0" 
d="M-154 539q-50 0 -82 28.5t-32 71.5t32 71.5t82 28.5t82 -28.5t32 -71.5t-32 -71.5t-82 -28.5z" />
    <glyph glyph-name="uni0308" unicode="&#x308;" horiz-adv-x="0" 
d="M-431 544q-45 0 -74 26t-29 65t29 64.5t74 25.5q46 0 74 -25.5t28 -64.5t-28 -65t-74 -26zM-181 544q-46 0 -74.5 26t-28.5 65t28.5 64.5t74.5 25.5q45 0 73.5 -25.5t28.5 -64.5t-28.5 -65t-73.5 -26z" />
    <glyph glyph-name="uni030A" unicode="&#x30a;" horiz-adv-x="0" 
d="M-365 525q-63 0 -105.5 31.5t-42.5 77.5q0 53 41 84t108 31q64 0 106.5 -30t42.5 -77q0 -53 -40.5 -85t-109.5 -32zM-364 573q47 0 47 65q0 29 -13.5 45t-33.5 16q-47 0 -47 -61q0 -29 13.5 -47t33.5 -18z" />
    <glyph glyph-name="uni030B" unicode="&#x30b;" horiz-adv-x="0" 
d="M-505 531q-11 10 2 33l104 177q26 43 58 11l36 -33q17 -15 18 -31.5t-17 -28.5l-168 -125q-20 -14 -33 -3zM-291 531q-11 11 2 33l105 177q25 42 58 11l35 -34q17 -15 17.5 -31t-16.5 -28l-168 -125q-20 -15 -33 -3z" />
    <glyph glyph-name="uni030C" unicode="&#x30c;" horiz-adv-x="0" 
d="M-62 713q18 9 34 -10.5t2 -33.5l-114 -112q-20 -19 -47 -19h-40q-28 0 -47 20l-107 111q-15 16 2 34t34 10l143 -74z" />
    <glyph glyph-name="uni0312" unicode="&#x312;" horiz-adv-x="0" 
d="M-181 313q-16 -9 -29 4.5t0 26.5q21 22 29.5 31t15.5 22t8 26q2 21 -12 21q-27 0 -46.5 24t-19.5 61q0 45 25.5 72t67.5 27q40 0 69 -30t29 -82q0 -119 -137 -203z" />
    <glyph glyph-name="uni0326" unicode="&#x326;" horiz-adv-x="0" 
d="M-222 -331q-15 -9 -27.5 4t-0.5 26q27 27 38 42t13 33q2 20 -12 20q-26 0 -44.5 23.5t-18.5 58.5q0 42 24 68t65 26q39 0 66.5 -28.5t27.5 -78.5q0 -115 -131 -194z" />
    <glyph glyph-name="uni0327" unicode="&#x327;" horiz-adv-x="0" 
d="M-250 -51q51 2 89 -19.5t38 -65.5t-42 -67t-104 -23q-56 0 -88 14q-22 10 -18 40q3 21 16 19l4 -1q22 -12 58 -12q22 0 36.5 9.5t14.5 27.5t-18.5 26t-40.5 8q-31 0 -26 30l13 65h70z" />
    <glyph glyph-name="uni0328" unicode="&#x328;" horiz-adv-x="0" 
d="M-243 -228q-49 0 -85.5 22t-36.5 70q0 78 112 139h64q-52 -64 -52 -116q-1 -45 29 -45q6 0 17 3q21 7 28 -17q8 -27 -13 -43l-8 -4q-18 -9 -55 -9z" />
    <glyph glyph-name="uni0335" unicode="&#x335;" horiz-adv-x="0" 
d="M-391 256q-17 0 -17 17v33q0 18 17 18h318q7 0 12.5 -5t5.5 -13v-30q0 -20 -18 -20h-318z" />
    <glyph glyph-name="uni0336" unicode="&#x336;" horiz-adv-x="0" 
d="M-693 256q-10 0 -17 5.5t-7 14.5v27q0 19 24 19h729q25 0 25 -19v-27q0 -20 -25 -20h-729z" />
    <glyph glyph-name="uni0337" unicode="&#x337;" horiz-adv-x="0" 
d="M-458 143q-13 -9 -23 4l-22 34q-9 14 7 25l316 206q20 13 29 -4l21 -33q8 -13 -7 -25z" />
    <glyph glyph-name="uni0338" unicode="&#x338;" horiz-adv-x="0" 
d="M-555 12l-25 24q-14 12 2 26l476 458q16 14 29 2l22 -22q11 -11 -2 -26l-480 -462q-13 -9 -22 0z" />
    <glyph glyph-name="Wgrave" unicode="&#x1e80;" horiz-adv-x="992" 
d="M403 779q-22 0 -31 14t-4 34l18 72q12 46 56 25l195 -96q24 -12 16 -39q-9 -22 -38 -22zM972 710q24 0 24 -19v-4q0 -14 -25 -36t-36 -50l-221 -551q-20 -50 -61 -50q-47 0 -65 46l-71 183l-77 -179q-22 -50 -68 -50q-50 0 -71 46l-248 554q-12 27 -38 50t-26 37v4
q0 19 24 19h235q23 0 23 -19v-4q0 -11 -13.5 -24.5t-21 -24.5t0.5 -38l171 -412l64 155l-100 258q-11 27 -32.5 49.5t-21.5 36.5v4q0 19 23 19h148q24 0 31 -23l43 -127l54 128q9 22 33 22h84q24 0 24 -19v-4q0 -12 -14 -19.5t-34 -21t-29 -35.5l-75 -176l76 -223l155 389
q8 19 -1.5 34t-23.5 28t-14 24v4q0 19 24 19h150z" />
    <glyph glyph-name="wgrave" unicode="&#x1e81;" horiz-adv-x="818" 
d="M305 591q-21 4 -27 19.5t4 34.5l32 67q9 19 25 23t35 -10l171 -135q22 -18 7 -41q-12 -19 -41 -14zM684 490q51 0 79.5 -39t28.5 -115q0 -159 -71 -252.5t-184 -93.5q-98 0 -141 78q-54 -78 -160 -78q-33 0 -62 9.5t-57.5 32t-45 67.5t-16.5 108v147q0 26 -20 50t-20 34
v4q0 8 6 15t16 8l149 20q48 6 48 -29l-4 -322q-1 -35 12 -56.5t35 -21.5q43 0 66.5 61t23.5 133v104q0 26 -20 50t-20 34v4q0 20 23 23l137 21q47 8 47 -30l-3 -318q-2 -82 47 -82t88 64.5t39 130.5q0 28 -15.5 49.5t-33.5 33.5t-33.5 34.5t-15.5 51.5q0 31 21 50.5t56 19.5
z" />
    <glyph glyph-name="Wacute" unicode="&#x1e82;" horiz-adv-x="992" 
d="M439 774q-29 -2 -38 20q-10 26 13 40l192 103q43 22 57 -23l20 -72q6 -20 -2.5 -34t-29.5 -15zM972 710q24 0 24 -19v-4q0 -14 -25 -36t-36 -50l-221 -551q-20 -50 -61 -50q-47 0 -65 46l-71 183l-77 -179q-22 -50 -68 -50q-50 0 -71 46l-248 554q-12 27 -38 50t-26 37v4
q0 19 24 19h235q23 0 23 -19v-4q0 -11 -13.5 -24.5t-21 -24.5t0.5 -38l171 -412l64 155l-100 258q-11 27 -32.5 49.5t-21.5 36.5v4q0 19 23 19h148q24 0 31 -23l43 -127l54 128q9 22 33 22h84q24 0 24 -19v-4q0 -12 -14 -19.5t-34 -21t-29 -35.5l-75 -176l76 -223l155 389
q8 19 -1.5 34t-23.5 28t-14 24v4q0 19 24 19h150z" />
    <glyph glyph-name="wacute" unicode="&#x1e83;" horiz-adv-x="818" 
d="M339 542q-27 -7 -41 13q-15 23 7 41l171 135q19 14 35 10t25 -23l32 -67q10 -18 4 -34t-27 -20zM684 490q51 0 79.5 -39t28.5 -115q0 -159 -71 -252.5t-184 -93.5q-98 0 -141 78q-54 -78 -160 -78q-33 0 -62 9.5t-57.5 32t-45 67.5t-16.5 108v147q0 26 -20 50t-20 34v4
q0 8 6 15t16 8l149 20q48 6 48 -29l-4 -322q-1 -35 12 -56.5t35 -21.5q43 0 66.5 61t23.5 133v104q0 26 -20 50t-20 34v4q0 20 23 23l137 21q47 8 47 -30l-3 -318q-2 -82 47 -82t88 64.5t39 130.5q0 28 -15.5 49.5t-33.5 33.5t-33.5 34.5t-15.5 51.5q0 31 21 50.5t56 19.5z
" />
    <glyph glyph-name="Wdieresis" unicode="&#x1e84;" horiz-adv-x="992" 
d="M404 767q-45 0 -74 26t-29 65t29 64.5t74 25.5q46 0 74 -25.5t28 -64.5q0 -40 -28 -65.5t-74 -25.5zM654 767q-46 0 -74 25.5t-28 65.5q0 39 28 64.5t74 25.5q45 0 74 -25.5t29 -64.5t-29 -65t-74 -26zM972 710q24 0 24 -19v-4q0 -14 -25 -36t-36 -50l-221 -551
q-20 -50 -61 -50q-47 0 -65 46l-71 183l-77 -179q-22 -50 -68 -50q-50 0 -71 46l-248 554q-12 27 -38 50t-26 37v4q0 19 24 19h235q23 0 23 -19v-4q0 -11 -13.5 -24.5t-21 -24.5t0.5 -38l171 -412l64 155l-100 258q-11 27 -32.5 49.5t-21.5 36.5v4q0 19 23 19h148
q24 0 31 -23l43 -127l54 128q9 22 33 22h84q24 0 24 -19v-4q0 -12 -14 -19.5t-34 -21t-29 -35.5l-75 -176l76 -223l155 389q8 19 -1.5 34t-23.5 28t-14 24v4q0 19 24 19h150z" />
    <glyph glyph-name="wdieresis" unicode="&#x1e85;" horiz-adv-x="818" 
d="M304 539q-45 0 -74 26.5t-29 65.5t29 64.5t74 25.5t73.5 -25.5t28.5 -64.5q0 -40 -28.5 -66t-73.5 -26zM553 539q-45 0 -73.5 26t-28.5 66q0 39 28.5 64.5t73.5 25.5t74 -25.5t29 -64.5t-29 -65.5t-74 -26.5zM684 490q51 0 79.5 -39t28.5 -115q0 -159 -71 -252.5
t-184 -93.5q-98 0 -141 78q-54 -78 -160 -78q-33 0 -62 9.5t-57.5 32t-45 67.5t-16.5 108v147q0 26 -20 50t-20 34v4q0 8 6 15t16 8l149 20q48 6 48 -29l-4 -322q-1 -35 12 -56.5t35 -21.5q43 0 66.5 61t23.5 133v104q0 26 -20 50t-20 34v4q0 20 23 23l137 21q47 8 47 -30
l-3 -318q-2 -82 47 -82t88 64.5t39 130.5q0 28 -15.5 49.5t-33.5 33.5t-33.5 34.5t-15.5 51.5q0 31 21 50.5t56 19.5z" />
    <glyph glyph-name="uni1E9E" unicode="&#x1e9e;" horiz-adv-x="705" 
d="M478 390q94 -11 150.5 -61t56.5 -128q0 -92 -77.5 -146.5t-209.5 -54.5q-22 0 -31 17.5t-1 35t26 17.5q48 0 75.5 33.5t27.5 95.5q0 61 -25.5 101.5t-68.5 40.5q-24 0 -30.5 27.5t10.5 47.5l111 126q0 39 -34.5 71t-92.5 32q-53 0 -85 -39t-32 -105v-391
q0 -25 19.5 -48.5t19.5 -38.5v-4q0 -5 -0.5 -8t-2 -5t-2 -3.5t-3.5 -2t-4 -0.5h-5.5h-5.5h-221q-23 0 -23 19v4q0 12 20 36.5t20 50.5v351q0 119 84 189t231 70q103 0 180 -46t90 -120q6 -35 -25 -59z" />
    <glyph glyph-name="Ygrave" unicode="&#x1ef2;" horiz-adv-x="696" 
d="M240 779q-22 0 -30.5 14t-3.5 34l18 72q5 21 19 28t36 -3l196 -96q10 -5 14.5 -16t0.5 -23q-9 -22 -37 -22zM667 710q23 0 23 -19v-4q0 -14 -26 -37t-40 -49l-173 -310v-182q0 -25 22 -49.5t22 -36.5v-4q0 -19 -24 -19h-220q-24 0 -24 19v4q0 12 20 36.5t20 49.5v166
l-202 326q-13 20 -31 36.5t-28 27t-10 22.5v4q0 19 24 19h271q24 0 24 -19v-4q0 -11 -16 -24t-26.5 -28t-0.5 -34l133 -240l132 240q11 20 0.5 35t-27 27.5t-16.5 23.5v4q0 19 24 19h149z" />
    <glyph glyph-name="ygrave" unicode="&#x1ef3;" horiz-adv-x="571" 
d="M181 595q-21 5 -27 20.5t3 33.5l33 68q21 42 60 12l171 -135q21 -16 7 -41q-14 -20 -41 -13zM485 486q44 6 44 -21v-402q0 -127 -78 -195t-195 -68q-89 0 -154 39t-65 103q0 28 19 47t52 19q28 0 47 -16.5t29.5 -39.5t20 -46.5t27 -40t43.5 -17.5q79 -2 79 187v1
q-44 -36 -120 -36q-74 0 -127 52t-53 135v167q0 26 -20 50t-20 34v4q0 20 23 23l149 20q47 6 47 -20l-3 -296q-1 -103 57 -103q28 0 47.5 26t19.5 65v197q0 26 -20.5 50t-20.5 34v4q0 20 23 23z" />
    <glyph glyph-name="uni1EF8" unicode="&#x1ef8;" horiz-adv-x="696" 
d="M203 770q-19 0 -16 23q10 49 42 82t77 33q39 0 89.5 -23.5t68.5 -23.5q29 0 45 22q9 14 24 14h8q21 0 16 -23q-11 -51 -41.5 -84t-74.5 -33q-34 0 -86 25t-75 25t-39 -19q-2 -2 -5 -6t-4.5 -5.5t-4 -3.5t-5.5 -2.5t-8 -0.5h-11zM667 710q23 0 23 -19v-4q0 -14 -26 -37
t-40 -49l-173 -310v-182q0 -25 22 -49.5t22 -36.5v-4q0 -19 -24 -19h-220q-24 0 -24 19v4q0 12 20 36.5t20 49.5v166l-202 326q-13 20 -31 36.5t-28 27t-10 22.5v4q0 19 24 19h271q24 0 24 -19v-4q0 -11 -16 -24t-26.5 -28t-0.5 -34l133 -240l132 240q11 20 0.5 35t-27 27.5
t-16.5 23.5v4q0 19 24 19h149z" />
    <glyph glyph-name="uni1EF9" unicode="&#x1ef9;" horiz-adv-x="571" 
d="M133 584q-8 0 -12.5 6t-2.5 17q10 48 41.5 81.5t76.5 33.5q39 0 89.5 -23.5t68.5 -23.5q29 0 45 22q11 14 25 14h7q21 0 16 -23q-11 -51 -41.5 -84t-73.5 -33q-34 0 -86.5 25t-75.5 25t-39 -19q-2 -3 -5 -6.5t-4 -5t-3.5 -3.5t-5.5 -2.5t-8 -0.5h-12zM485 486
q44 6 44 -21v-402q0 -127 -78 -195t-195 -68q-89 0 -154 39t-65 103q0 28 19 47t52 19q28 0 47 -16.5t29.5 -39.5t20 -46.5t27 -40t43.5 -17.5q79 -2 79 187v1q-44 -36 -120 -36q-74 0 -127 52t-53 135v167q0 26 -20 50t-20 34v4q0 20 23 23l149 20q47 6 47 -20l-3 -296
q-1 -103 57 -103q28 0 47.5 26t19.5 65v197q0 26 -20.5 50t-20.5 34v4q0 20 23 23z" />
    <glyph glyph-name="endash" unicode="&#x2013;" horiz-adv-x="554" 
d="M69 291q-22 0 -22 25v38q0 25 22 25h416q22 0 22 -25v-38q0 -25 -22 -25h-416z" />
    <glyph glyph-name="emdash" unicode="&#x2014;" horiz-adv-x="653" 
d="M69 291q-22 0 -22 25v38q0 25 22 25h515q23 0 23 -25v-38q0 -25 -23 -25h-515z" />
    <glyph glyph-name="quoteleft" unicode="&#x2018;" horiz-adv-x="254" 
d="M170 783q17 10 31 -5.5t0 -28.5q-31 -32 -43 -49t-14 -37q-2 -22 13 -22q30 0 51 -26.5t21 -66.5q0 -48 -27.5 -77.5t-73.5 -29.5q-44 0 -75.5 33t-31.5 88q0 130 149 221z" />
    <glyph glyph-name="quoteright" unicode="&#x2019;" horiz-adv-x="255" 
d="M89 429q-17 -10 -31.5 5t-0.5 29q32 32 44 48.5t14 37.5q2 22 -13 22q-30 0 -51 26.5t-21 66.5q0 48 27.5 77.5t73.5 29.5q44 0 75.5 -33t31.5 -89q0 -130 -149 -220z" />
    <glyph glyph-name="quotesinglbase" unicode="&#x201a;" horiz-adv-x="270" 
d="M90 -152q-17 -10 -31 5.5t0 28.5q31 32 43 49t14 37q2 22 -13 22q-30 0 -51 26.5t-21 66.5q0 48 27.5 77.5t73.5 29.5q44 0 75.5 -33t31.5 -88q0 -130 -149 -221z" />
    <glyph glyph-name="quotedblleft" unicode="&#x201c;" horiz-adv-x="501" 
d="M170 785q17 11 31 -4.5t0 -29.5q-31 -31 -43 -48t-14 -37q-2 -22 13 -22q30 0 51 -26.5t21 -67.5q0 -48 -27.5 -77t-73.5 -29q-44 0 -75.5 32.5t-31.5 88.5q0 130 149 220zM418 785q17 11 31 -4.5t0 -29.5q-31 -31 -43 -48t-14 -37q-2 -22 13 -22q30 0 51 -26.5t21 -67.5
q0 -48 -27.5 -77t-73.5 -29q-44 0 -75.5 32.5t-31.5 88.5q0 130 149 220z" />
    <glyph glyph-name="quotedblright" unicode="&#x201d;" horiz-adv-x="503" 
d="M89 429q-17 -10 -31.5 5.5t-0.5 28.5q32 33 44 49.5t13 36.5q3 22 -12 22q-30 0 -51 26t-21 67q0 48 27.5 77.5t73.5 29.5q44 0 75 -33t31 -88q0 -130 -148 -221zM337 429q-17 -10 -31.5 5t-0.5 29q32 33 44 49.5t14 36.5q2 22 -13 22q-30 0 -51 26.5t-21 66.5
q0 48 27.5 77.5t73.5 29.5q44 0 75 -33t31 -88q0 -130 -148 -221z" />
    <glyph glyph-name="quotedblbase" unicode="&#x201e;" horiz-adv-x="518" 
d="M90 -152q-17 -10 -31 5.5t0 28.5q31 32 43 49t14 37q2 22 -13 22q-30 0 -51 26.5t-21 66.5q0 48 27.5 77.5t73.5 29.5q44 0 75.5 -33t31.5 -88q0 -130 -149 -221zM338 -152q-17 -10 -31 5.5t0 28.5q31 32 43 49t14 37q2 22 -13 22q-30 0 -51 26.5t-21 66.5
q0 48 27.5 77.5t73.5 29.5q44 0 75.5 -33t31.5 -88q0 -130 -149 -221z" />
    <glyph glyph-name="dagger" unicode="&#x2020;" horiz-adv-x="576" 
d="M509 537q30 3 42.5 -25.5t0 -57.5t-42.5 -25l-194 23l20 -495q1 -30 -24.5 -41.5t-51 1t-24.5 40.5l22 495l-195 -23q-27 -3 -38.5 25.5t0 57t38.5 25.5l192 -23l-33 249q-4 38 30.5 53.5t69 -0.5t29.5 -53l-32 -249z" />
    <glyph glyph-name="daggerdbl" unicode="&#x2021;" horiz-adv-x="587" 
d="M514 318q30 4 42 -25t-0.5 -58t-41.5 -25l-185 22l12 -275q1 -30 -24.5 -41.5t-51 1t-24.5 40.5l12 275l-184 -22q-27 -3 -38 25.5t0 57t38 25.5l187 -22l7 156l-194 -23q-27 -3 -38 25.5t0 57t38 25.5l191 -23l-33 249q-5 38 29.5 53.5t69.5 -0.5t30 -53l-33 -249
l191 23q30 3 42 -25.5t-0.5 -57.5t-41.5 -25l-194 23l7 -156z" />
    <glyph glyph-name="bullet" unicode="&#x2022;" horiz-adv-x="431" 
d="M216 224q-72 0 -118 41t-46 103t45.5 103.5t118.5 41.5t118.5 -41.5t45.5 -103.5t-45.5 -103t-118.5 -41z" />
    <glyph glyph-name="ellipsis" unicode="&#x2026;" horiz-adv-x="795" 
d="M136 -10q-46 0 -76 24t-30 71q0 46 30 70t76 24t75.5 -24t29.5 -70t-29.5 -70.5t-75.5 -24.5zM402 -10q-46 0 -76 24.5t-30 70.5t30 70t76 24t76 -24t30 -70t-30 -70.5t-76 -24.5zM660 -10q-46 0 -76 24t-30 71q0 46 30 70t76 24t75.5 -24t29.5 -70t-29.5 -70.5
t-75.5 -24.5z" />
    <glyph glyph-name="perthousand" unicode="&#x2030;" horiz-adv-x="1303" 
d="M214 341q-79 0 -134.5 52.5t-55.5 135.5q0 85 52.5 138t136.5 53q79 0 135 -54.5t56 -137.5t-56 -135t-134 -52zM236 0q-13 0 -17 8t2 18l350 669q9 15 20 15h64q12 0 16.5 -8t-1.5 -18l-348 -669q-7 -15 -25 -15h-61zM231 384q44 0 44 84q0 70 -25 139t-62 69
q-44 0 -44 -90q0 -73 25 -137.5t62 -64.5zM685 -10q-79 0 -134.5 52.5t-55.5 135.5q0 85 52.5 138t136.5 53q80 0 135.5 -54t55.5 -138q0 -83 -56 -135t-134 -52zM1091 -10q-79 0 -134 52t-55 136q0 85 52 138t136 53q79 0 134 -54t55 -138q0 -83 -55.5 -135t-132.5 -52z
M702 33q44 0 44 84q0 70 -25 139t-62 69q-44 0 -44 -89q0 -74 25 -138.5t62 -64.5zM1108 33q45 0 45 84q0 69 -25.5 138.5t-63.5 69.5q-23 0 -34 -25.5t-11 -63.5q0 -73 25.5 -138t63.5 -65z" />
    <glyph glyph-name="guilsinglleft" unicode="&#x2039;" horiz-adv-x="301" 
d="M157 279q43 -35 73 -86t33 -87q0 -8 -10.5 -14t-25.5 -4.5t-24 12.5q-32 38 -91.5 82t-73.5 57q-12 11 -11.5 44.5t11.5 43.5q2 2 24 19t27.5 21.5t24 20t27.5 24.5t23.5 23t26 27.5t21.5 28.5q9 13 31 8t22 -19q-3 -53 -32 -109.5t-76 -91.5z" />
    <glyph glyph-name="guilsinglright" unicode="&#x203a;" horiz-adv-x="299" 
d="M261 327q11 -10 11.5 -43.5t-11.5 -44.5q-13 -12 -73 -56.5t-91 -82.5q-15 -17 -37.5 -12.5t-22.5 18.5q3 37 33 90t72 88q-47 34 -75 88t-31 108q-1 14 21 19t31 -8t20 -26t19.5 -22.5t23 -23t20.5 -19.5t24 -20.5t21 -17t24 -18.5z" />
    <glyph glyph-name="fraction" unicode="&#x2044;" horiz-adv-x="417" 
d="M-7 0q-13 0 -17.5 8t2.5 18l367 669q7 15 25 15h55q12 0 17 -8t-2 -18l-365 -669q-8 -15 -26 -15h-56z" />
    <glyph glyph-name="Euro" unicode="&#x20ac;" horiz-adv-x="705" 
d="M614 211q17 13 35.5 4.5t17.5 -32.5q-4 -70 -70.5 -130.5t-170.5 -60.5q-127 0 -209 81t-104 203h-64q-23 0 -23 18v25q0 8 6.5 13t16.5 5h57v21q0 19 1 28h-58q-23 0 -23 16v27q0 17 23 17h66q24 122 110 194t200 72q102 0 172 -37t70 -102q0 -29 -20.5 -52t-55.5 -23
q-32 0 -53.5 14.5t-34.5 36t-25.5 42.5t-34.5 35.5t-53 14.5q-48 0 -78.5 -53.5t-30.5 -141.5h236q23 0 23 -17v-27q0 -16 -23 -16h-233q1 -20 7 -49h195q10 0 17 -5t7 -13v-25q0 -18 -24 -18h-178q23 -60 61.5 -91t86.5 -31q87 0 158 57z" />
    <glyph glyph-name="trademark" unicode="&#x2122;" horiz-adv-x="786" 
d="M329 616q2 -13 -11 -13h-9q-9 0 -25 28t-33 28h-22v-220q0 -11 10.5 -23t10.5 -17v-2q0 -9 -10 -9h-121q-11 0 -11 9v2q0 5 10.5 17t10.5 23v220h-23q-17 0 -32.5 -28t-24.5 -28h-9q-14 0 -12 13l9 79q1 14 16 14h252q14 0 15 -14zM730 439q2 -11 10.5 -22.5t8.5 -17.5
v-2q0 -9 -11 -9h-116q-11 0 -11 9v2q0 5 9 17t7 23l-26 151l-67 -188q-5 -14 -18 -14q-14 0 -19 14l-69 174l-20 -137q-2 -12 7.5 -23.5t9.5 -16.5v-2q0 -9 -11 -9h-86q-12 0 -12 9v2q0 6 9 17.5t11 22.5l33 220q2 12 -7.5 23.5t-9.5 16.5v2q0 8 10 8h95q19 0 24 -16
l47 -138l45 138q4 16 24 16h98q11 0 11 -8v-3q0 -5 -10 -16.5t-8 -23.5z" />
    <glyph glyph-name="minus" unicode="&#x2212;" 
d="M102 237q-23 0 -23 18v75q0 8 6.5 13.5t16.5 5.5h397q10 0 16.5 -5.5t6.5 -13.5v-75q0 -18 -23 -18h-397z" />
    <glyph glyph-name="approxequal" unicode="&#x2248;" 
d="M195 490q43 0 112.5 -29t102.5 -29q48 0 69 31q12 15 27 15h26q19 0 16 -22q-11 -68 -50.5 -104.5t-95.5 -36.5q-47 0 -113.5 30.5t-100.5 30.5q-44 0 -64 -32q-10 -18 -30 -18h-20q-18 0 -16 23q6 53 40 97t97 44zM193 274q43 0 113 -29t103 -29q46 0 69 30q12 16 26 16
h26q20 0 17 -22q-11 -68 -51 -104.5t-96 -36.5q-47 0 -113.5 30.5t-99.5 30.5q-44 0 -64 -32q-5 -7 -7.5 -10t-8.5 -5.5t-15 -2.5h-20q-18 0 -15 23q5 53 39 97t97 44z" />
    <glyph glyph-name="notequal" unicode="&#x2260;" 
d="M498 327h-126l-42 -82h168q10 0 16.5 -5t6.5 -13v-75q0 -18 -23 -18h-226l-62 -120q-6 -14 -21 -8l-31 15q-16 7 -7 25l46 88h-96q-23 0 -23 18v75q0 8 6.5 13t16.5 5h154l42 82h-196q-23 0 -23 18v75q0 8 6.5 13.5t16.5 5.5h255l52 100q9 20 26 11l28 -13q16 -8 6 -25
l-38 -73h68q10 0 16.5 -5.5t6.5 -13.5v-75q0 -18 -23 -18z" />
    <glyph glyph-name="uniF8FF" unicode="&#xf8ff;" horiz-adv-x="1451" 
d="M691 583q0 26 17.5 44t43.5 18t44 -18t18 -44t-18 -43.5t-44 -17.5t-43.5 18t-17.5 43zM219 270h-119q0 78 2 156.5t4 117.5l3 40h100q9 -139 10 -314zM694 270q0 92 3 147h-61l3 -65q4 -4 15 -4q6 0 10.5 1t5.5 3l2 1v-74q-10 -15 -66 -15q-84 0 -84 66q0 15 2 50t2 37
h-22v79l119 30l1 -17h178q10 -64 10 -239h-118zM328 265q-92 0 -92 113q0 136 137 136q119 0 121 -117v-127h-83l-8 61q-6 -33 -23.5 -49.5t-51.5 -16.5zM1090 270h-114q0 26 1 56t1 40q0 26 -15 26q-18 0 -18 -26q0 -10 1.5 -40t1.5 -56h-114q0 78 2.5 137.5t5.5 80.5l2 21
h80q6 -45 6 -76q0 9 4.5 25t24.5 36t52 20q41 0 57.5 -24.5t18.5 -81.5zM1351 384q0 -55 -31 -87t-93 -32q-60 0 -90.5 33t-30.5 86q0 130 122 130q70 0 96.5 -34.5t26.5 -95.5zM390 375q0 26 -23 26t-23 -26q0 -30 23 -30t23 30zM1251 375q0 26 -23 26q-21 0 -21 -26
q0 -30 21 -30q23 0 23 30zM428 238h104q10 -60 10 -147q0 -73 -35 -107t-114 -34q-32 0 -54.5 4t-29.5 8l-7 5v83q20 -16 69 -16q24 0 37.5 7t15.5 14l2 7q-13 -11 -49 -11q-90 0 -90 83v13h-55l3 -65q4 -4 15 -4q6 0 10.5 1t5.5 3l2 1v-73q-10 -15 -67 -15q-82 0 -82 64
q0 46 3 88h-18v80l117 29l-1 -17l177 -1v-119q0 -27 14 -27q17 0 17 27v119zM733 243q37 0 58.5 -29t21.5 -83q0 -136 -137 -136q1 -13 1 -39h-119q0 76 2.5 146.5t5.5 103.5l2 32h78q7 -52 7 -76q2 11 6.5 25.5t24 35t49.5 20.5zM1070 129l-3 -37h-124q9 -18 49 -18
q16 0 30 3t20 6l6 3v-75q-20 -16 -78 -16q-69 0 -105 31t-36 86q0 64 32.5 97.5t93.5 33.5q54 0 84.5 -30t30.5 -84zM978 109q3 27 -17 27q-23 0 -23 -27h40zM670 72q4 0 10 1.5t16.5 11t10.5 25.5q0 22 -20 22q-22 0 -22 -32zM1075 13q0 -10 6.5 -16.5t16.5 -6.5
q9 0 15.5 6.5t6.5 16.5t-6.5 16t-15.5 6q-10 0 -16.5 -6t-6.5 -16zM1080 13q0 7 5 12.5t13 5.5q7 0 12 -5.5t5 -12.5t-5 -12.5t-12 -5.5q-8 0 -13 5.5t-5 12.5zM1108 2l-6 9q7 0 7 7t-10 7h-11v-23h5v9h5l4 -9h6zM1099 15h-6v6h5q6 0 6 -2q0 -4 -5 -4z" />
    <glyph glyph-name="uni00A40301" horiz-adv-x="572" 
d="M325 774q-29 -2 -38 20q-10 26 14 40l192 103q21 11 36 4t20 -27l21 -72q5 -20 -3 -34t-30 -15zM319 601q0 25 -20 49.5t-20 36.5v4q0 19 24 19h220q23 0 23 -19v-4q0 -12 -22 -36.5t-22 -49.5v-283q0 -173 -64 -249.5t-187 -78.5q-69 -1 -119.5 17t-75.5 47t-36.5 58.5
t-11.5 59.5q0 40 22 64t59 24t59 -20.5t30.5 -50t15.5 -58.5t22 -49.5t42 -20.5q61 0 61 146v394z" />
    <glyph glyph-name="A.ss01" horiz-adv-x="706" 
d="M656 109q11 -27 34.5 -49.5t23.5 -36.5v-4q0 -19 -24 -19h-259q-23 0 -23 19v4q0 11 14.5 23.5t25 27.5t3.5 35l-22 62h-254l-22 -62q-7 -20 3.5 -35t25 -27.5t14.5 -23.5v-4q0 -19 -24 -19h-148q-24 0 -24 19v4q0 13 23.5 36t34.5 50l187 484q7 17 -2.5 35t-22 34
t-12.5 25v4q0 19 23 19h128q49 0 69 -48zM202 246h200l-100 279z" />
    <glyph glyph-name="Aacute.ss01" horiz-adv-x="706" 
d="M242 774q-28 -2 -39 20q-10 26 14 40l192 103q21 11 36 4t21 -27l20 -72q6 -20 -2.5 -34t-29.5 -15zM656 109q11 -27 34.5 -49.5t23.5 -36.5v-4q0 -19 -24 -19h-259q-23 0 -23 19v4q0 11 14.5 23.5t25 27.5t3.5 35l-22 62h-254l-22 -62q-7 -20 3.5 -35t25 -27.5
t14.5 -23.5v-4q0 -19 -24 -19h-148q-24 0 -24 19v4q0 13 23.5 36t34.5 50l187 484q7 17 -2.5 35t-22 34t-12.5 25v4q0 19 23 19h128q49 0 69 -48zM202 246h200l-100 279z" />
    <glyph glyph-name="Abreve.ss01" horiz-adv-x="706" 
d="M329 759q-72 0 -119.5 39t-55.5 98q-3 23 23 30t36 -9q12 -24 44.5 -38.5t71.5 -14.5q40 0 72.5 14.5t44.5 38.5q5 8 20 8.5t27.5 -8t11.5 -21.5q-8 -59 -55 -98t-121 -39zM656 109q11 -27 34.5 -49.5t23.5 -36.5v-4q0 -19 -24 -19h-259q-23 0 -23 19v4q0 11 14.5 23.5
t25 27.5t3.5 35l-22 62h-254l-22 -62q-7 -20 3.5 -35t25 -27.5t14.5 -23.5v-4q0 -19 -24 -19h-148q-24 0 -24 19v4q0 13 23.5 36t34.5 50l187 484q7 17 -2.5 35t-22 34t-12.5 25v4q0 19 23 19h128q49 0 69 -48zM202 246h200l-100 279z" />
    <glyph glyph-name="Acircumflex.ss01" horiz-adv-x="706" 
d="M186 759q-21 -11 -40.5 7.5t3.5 43.5l110 114q19 20 47 20h35q28 0 47 -19l122 -115q24 -23 7 -44.5t-48 -6.5l-150 73zM656 109q11 -27 34.5 -49.5t23.5 -36.5v-4q0 -19 -24 -19h-259q-23 0 -23 19v4q0 11 14.5 23.5t25 27.5t3.5 35l-22 62h-254l-22 -62q-7 -20 3.5 -35
t25 -27.5t14.5 -23.5v-4q0 -19 -24 -19h-148q-24 0 -24 19v4q0 13 23.5 36t34.5 50l187 484q7 17 -2.5 35t-22 34t-12.5 25v4q0 19 23 19h128q49 0 69 -48zM202 246h200l-100 279z" />
    <glyph glyph-name="Adieresis.ss01" horiz-adv-x="706" 
d="M207 767q-46 0 -74.5 26t-28.5 65t28.5 64.5t74.5 25.5q45 0 73.5 -25.5t28.5 -64.5t-28.5 -65t-73.5 -26zM456 767q-45 0 -73.5 26t-28.5 65t28.5 64.5t73.5 25.5t74 -25.5t29 -64.5t-29 -65t-74 -26zM656 109q11 -27 34.5 -49.5t23.5 -36.5v-4q0 -19 -24 -19h-259
q-23 0 -23 19v4q0 11 14.5 23.5t25 27.5t3.5 35l-22 62h-254l-22 -62q-7 -20 3.5 -35t25 -27.5t14.5 -23.5v-4q0 -19 -24 -19h-148q-24 0 -24 19v4q0 13 23.5 36t34.5 50l187 484q7 17 -2.5 35t-22 34t-12.5 25v4q0 19 23 19h128q49 0 69 -48zM202 246h200l-100 279z" />
    <glyph glyph-name="Agrave.ss01" horiz-adv-x="706" 
d="M205 779q-21 0 -30 14t-4 34l18 72q5 21 19.5 28t36.5 -3l195 -96q25 -12 15 -39q-7 -22 -37 -22zM656 109q11 -27 34.5 -49.5t23.5 -36.5v-4q0 -19 -24 -19h-259q-23 0 -23 19v4q0 11 14.5 23.5t25 27.5t3.5 35l-22 62h-254l-22 -62q-7 -20 3.5 -35t25 -27.5t14.5 -23.5
v-4q0 -19 -24 -19h-148q-24 0 -24 19v4q0 13 23.5 36t34.5 50l187 484q7 17 -2.5 35t-22 34t-12.5 25v4q0 19 23 19h128q49 0 69 -48zM202 246h200l-100 279z" />
    <glyph glyph-name="Amacron.ss01" horiz-adv-x="706" 
d="M188 790q-25 0 -25 24v61q0 23 25 23h282q25 0 25 -23v-61q0 -24 -25 -24h-282zM656 109q11 -27 34.5 -49.5t23.5 -36.5v-4q0 -19 -24 -19h-259q-23 0 -23 19v4q0 11 14.5 23.5t25 27.5t3.5 35l-22 62h-254l-22 -62q-7 -20 3.5 -35t25 -27.5t14.5 -23.5v-4q0 -19 -24 -19
h-148q-24 0 -24 19v4q0 13 23.5 36t34.5 50l187 484q7 17 -2.5 35t-22 34t-12.5 25v4q0 19 23 19h128q49 0 69 -48zM202 246h200l-100 279z" />
    <glyph glyph-name="Aogonek.ss01" horiz-adv-x="706" 
d="M656 109q11 -27 34.5 -49.5t23.5 -36.5v-4q0 -19 -24 -19h-78q-52 -64 -52 -116q-1 -46 28 -46q4 0 18 4q21 7 28 -16q8 -27 -13 -44q-4 -3 -9 -5q-18 -8 -55 -8q-49 0 -85 22t-36 70q0 78 112 139h-117q-23 0 -23 19v4q0 11 14.5 23.5t25 27.5t3.5 35l-22 62h-254
l-22 -62q-7 -20 3.5 -35t25 -27.5t14.5 -23.5v-4q0 -19 -24 -19h-148q-24 0 -24 19v4q0 13 23.5 36t34.5 50l187 484q7 17 -2.5 35t-22 34t-12.5 25v4q0 19 23 19h128q49 0 69 -48zM202 246h200l-100 279z" />
    <glyph glyph-name="Aring.ss01" horiz-adv-x="706" 
d="M334 739q-64 0 -106.5 31t-42.5 78q0 53 41.5 84t108.5 31q64 0 106.5 -30.5t42.5 -77.5q0 -53 -41 -84.5t-109 -31.5zM335 912q-47 0 -47 -60q0 -29 13.5 -47t33.5 -18q46 0 46 65q0 28 -13 44t-33 16zM656 109q11 -27 34.5 -49.5t23.5 -36.5v-4q0 -19 -24 -19h-259
q-23 0 -23 19v4q0 11 14.5 23.5t25 27.5t3.5 35l-22 62h-254l-22 -62q-7 -20 3.5 -35t25 -27.5t14.5 -23.5v-4q0 -19 -24 -19h-148q-24 0 -24 19v4q0 13 23.5 36t34.5 50l187 484q7 17 -2.5 35t-22 34t-12.5 25v4q0 19 23 19h128q49 0 69 -48zM202 246h200l-100 279z" />
    <glyph glyph-name="Atilde.ss01" horiz-adv-x="706" 
d="M168 770q-9 0 -13.5 6t-2.5 17q10 48 41.5 81.5t76.5 33.5q39 0 89.5 -23.5t68.5 -23.5q31 0 45 22q11 14 25 14h7q22 0 17 -23q-12 -51 -42.5 -84t-73.5 -33q-34 0 -86.5 25t-75.5 25t-39 -19q-1 -2 -3.5 -5.5t-3.5 -4.5l-3 -3t-4 -3t-5 -1.5t-7 -0.5h-11zM656 109
q11 -27 34.5 -49.5t23.5 -36.5v-4q0 -19 -24 -19h-259q-23 0 -23 19v4q0 11 14.5 23.5t25 27.5t3.5 35l-22 62h-254l-22 -62q-7 -20 3.5 -35t25 -27.5t14.5 -23.5v-4q0 -19 -24 -19h-148q-24 0 -24 19v4q0 13 23.5 36t34.5 50l187 484q7 17 -2.5 35t-22 34t-12.5 25v4
q0 19 23 19h128q49 0 69 -48zM202 246h200l-100 279z" />
    <glyph glyph-name="G.ss01" horiz-adv-x="715" 
d="M388 -10q-104 0 -188.5 52t-129.5 135t-45 177q0 83 28.5 153t76 115.5t108 71t125.5 25.5q126 0 210 -54t84 -131q0 -37 -22 -59t-58 -22t-65 20t-50 48.5t-40.5 57.5t-46 49t-57.5 20q-53 0 -85 -49t-32 -126q0 -148 67 -254t160 -106q34 0 57 10v131q0 26 -28 50
t-28 36v4q0 9 7.5 14.5t18.5 5.5l223 -1q24 0 24 -20v-4q0 -12 -24 -36t-24 -50v-116q0 -42 -42 -75q-91 -72 -224 -72z" />
    <glyph glyph-name="Gbreve.ss01" horiz-adv-x="716" 
d="M374 759q-72 0 -119.5 39t-55.5 98q-3 23 23.5 30t35.5 -9q12 -24 44.5 -38.5t71.5 -14.5q40 0 72.5 14.5t44.5 38.5q5 8 20 8.5t27.5 -8t11.5 -21.5q-8 -59 -55 -98t-121 -39zM388 -10q-104 0 -188.5 52t-129.5 135t-45 177q0 83 28.5 153t76 115.5t108 71t125.5 25.5
q126 0 210 -54t84 -131q0 -37 -22 -59t-58 -22t-65 20t-50 48.5t-40.5 57.5t-46 49t-57.5 20q-53 0 -85 -49t-32 -126q0 -148 67 -254t160 -106q34 0 57 10v131q0 26 -28 50t-28 36v4q0 9 7.5 14.5t18.5 5.5l223 -1q24 0 24 -20v-4q0 -12 -24 -36t-24 -50v-116
q0 -42 -42 -75q-91 -72 -224 -72z" />
    <glyph glyph-name="uni0122.ss01" horiz-adv-x="716" 
d="M388 -10q-104 0 -188.5 52t-129.5 135t-45 177q0 83 28.5 153t76 115.5t108 71t125.5 25.5q126 0 210 -54t84 -131q0 -37 -22 -59t-58 -22t-65 20t-50 48.5t-40.5 57.5t-46 49t-57.5 20q-53 0 -85 -49t-32 -126q0 -148 67 -254t160 -106q34 0 57 10v131q0 26 -28 50
t-28 36v4q0 9 7.5 14.5t18.5 5.5l223 -1q24 0 24 -20v-4q0 -12 -24 -36t-24 -50v-116q0 -42 -42 -75q-91 -72 -224 -72zM339 -331q-15 -9 -27.5 4t-0.5 26q27 27 38 42t13 33q2 20 -12 20q-26 0 -44.5 23.5t-18.5 58.5q0 42 24 68t65 26q39 0 66.5 -28.5t27.5 -78.5
q0 -115 -131 -194z" />
    <glyph glyph-name="Gdotaccent.ss01" horiz-adv-x="716" 
d="M382 753q-47 0 -76 26.5t-29 66.5t29 66t76 26t76 -26t29 -66t-29 -66.5t-76 -26.5zM388 -10q-104 0 -188.5 52t-129.5 135t-45 177q0 83 28.5 153t76 115.5t108 71t125.5 25.5q126 0 210 -54t84 -131q0 -37 -22 -59t-58 -22t-65 20t-50 48.5t-40.5 57.5t-46 49t-57.5 20
q-53 0 -85 -49t-32 -126q0 -148 67 -254t160 -106q34 0 57 10v131q0 26 -28 50t-28 36v4q0 9 7.5 14.5t18.5 5.5l223 -1q24 0 24 -20v-4q0 -12 -24 -36t-24 -50v-116q0 -42 -42 -75q-91 -72 -224 -72z" />
    <glyph glyph-name="K.ss01" horiz-adv-x="722" 
d="M676 110q14 -23 31.5 -40t27 -26t9.5 -21v-4q0 -19 -24 -19h-247q-23 0 -23 19v4q0 10 14 24.5t20.5 25t-3.5 35.5l-140 236l-78 -79v-155q0 -25 22 -50t22 -37v-4q0 -19 -24 -19h-218q-24 0 -24 19v4q0 12 20 37t20 50v491q0 25 -20 49.5t-20 36.5v4q0 19 24 19h218
q24 0 24 -19v-4q0 -12 -22 -36.5t-22 -49.5v-228l221 227q17 23 15.5 33.5t-12 27t-10.5 26.5v4q0 19 24 19h163q24 0 24 -19v-4q0 -12 -13.5 -23.5t-39 -28.5t-42.5 -35l-129 -131z" />
    <glyph glyph-name="uni0136.ss01" horiz-adv-x="722" 
d="M676 110q14 -23 31.5 -40t27 -26t9.5 -21v-4q0 -19 -24 -19h-247q-23 0 -23 19v4q0 10 14 24.5t20.5 25t-3.5 35.5l-140 236l-78 -79v-155q0 -25 22 -50t22 -37v-4q0 -19 -24 -19h-218q-24 0 -24 19v4q0 12 20 37t20 50v491q0 25 -20 49.5t-20 36.5v4q0 19 24 19h218
q24 0 24 -19v-4q0 -12 -22 -36.5t-22 -49.5v-228l221 227q17 23 15.5 33.5t-12 27t-10.5 26.5v4q0 19 24 19h163q24 0 24 -19v-4q0 -12 -13.5 -23.5t-39 -28.5t-42.5 -35l-129 -131zM389 -30q39 0 66.5 -28.5t27.5 -78.5q0 -115 -131 -194q-15 -9 -27.5 4t-0.5 26
q27 27 38 42t13 33q2 20 -12 20q-26 0 -44.5 23.5t-18.5 58.5q0 42 24 68t65 26z" />
    <glyph glyph-name="M.ss01" horiz-adv-x="901" 
d="M850 110q5 -25 23 -49.5t18 -37.5v-4q0 -19 -24 -19h-208q-24 0 -24 19v4q0 10 20 35.5t15 51.5l-60 349l-153 -429q-10 -29 -36 -29q-29 0 -42 28l-175 446l-54 -365q-4 -26 16 -51t20 -36v-4q0 -19 -24 -19h-124q-24 0 -24 19v4q0 13 18.5 37.5t22.5 49.5l76 490
q4 26 -17.5 51t-21.5 36v4q0 19 23 19h132q41 0 54 -36l145 -424l140 422q14 38 52 38h136q23 0 23 -19v-4q0 -10 -22 -36t-17 -53z" />
    <glyph glyph-name="N.ss01" horiz-adv-x="759" 
d="M704 710q24 0 24 -19v-4q0 -12 -22.5 -36.5t-22.5 -49.5v-554q0 -47 -46 -47h-57q-28 0 -52 33l-357 474v-397q0 -25 23.5 -50t23.5 -37v-4q0 -19 -25 -19h-128q-24 0 -24 19v4q0 12 20 37t20 50v490q0 25 -20 50t-20 37v4q0 19 24 19h149q31 0 54 -32l325 -452v375
q0 25 -22 49.5t-22 36.5v4q0 19 24 19h131z" />
    <glyph glyph-name="Nacute.ss01" horiz-adv-x="759" 
d="M299 774q-29 -2 -38 20q-10 26 13 40l192 103q43 22 57 -23l20 -72q6 -20 -2.5 -34t-29.5 -15zM704 710q24 0 24 -19v-4q0 -12 -22.5 -36.5t-22.5 -49.5v-554q0 -47 -46 -47h-57q-28 0 -52 33l-357 474v-397q0 -25 23.5 -50t23.5 -37v-4q0 -19 -25 -19h-128q-24 0 -24 19
v4q0 12 20 37t20 50v490q0 25 -20 50t-20 37v4q0 19 24 19h149q31 0 54 -32l325 -452v375q0 25 -22 49.5t-22 36.5v4q0 19 24 19h131z" />
    <glyph glyph-name="Ncaron.ss01" horiz-adv-x="759" 
d="M314 767l-107 104q-14 15 3 32t34 9l143 -70l140 70q17 9 33.5 -9.5t2.5 -31.5l-114 -105q-21 -18 -47 -18h-40q-28 0 -48 19zM704 710q24 0 24 -19v-4q0 -12 -22.5 -36.5t-22.5 -49.5v-554q0 -47 -46 -47h-57q-28 0 -52 33l-357 474v-397q0 -25 23.5 -50t23.5 -37v-4
q0 -19 -25 -19h-128q-24 0 -24 19v4q0 12 20 37t20 50v490q0 25 -20 50t-20 37v4q0 19 24 19h149q31 0 54 -32l325 -452v375q0 25 -22 49.5t-22 36.5v4q0 19 24 19h131z" />
    <glyph glyph-name="uni0145.ss01" horiz-adv-x="759" 
d="M704 710q24 0 24 -19v-4q0 -12 -22.5 -36.5t-22.5 -49.5v-554q0 -47 -46 -47h-57q-28 0 -52 33l-357 474v-397q0 -25 23.5 -50t23.5 -37v-4q0 -19 -25 -19h-128q-24 0 -24 19v4q0 12 20 37t20 50v490q0 25 -20 50t-20 37v4q0 19 24 19h149q31 0 54 -32l325 -452v375
q0 25 -22 49.5t-22 36.5v4q0 19 24 19h131zM387 -30q39 0 66.5 -28.5t27.5 -78.5q0 -115 -131 -194q-15 -9 -27.5 4t-0.5 26q27 27 38 42t13 33q2 20 -12 20q-26 0 -44.5 23.5t-18.5 58.5q0 42 24 68t65 26z" />
    <glyph glyph-name="Ntilde.ss01" horiz-adv-x="759" 
d="M226 770q-9 0 -13.5 6t-2.5 17q10 48 41.5 81.5t76.5 33.5q39 0 90 -23.5t69 -23.5q30 0 44 22q11 14 25 14h7q22 0 17 -23q-11 -51 -42 -84t-74 -33q-34 0 -86 25t-76 25q-22 0 -38 -19q-2 -2 -5 -6t-4.5 -5.5t-4 -3.5t-5.5 -2.5t-8 -0.5h-11zM704 710q24 0 24 -19v-4
q0 -12 -22.5 -36.5t-22.5 -49.5v-554q0 -47 -46 -47h-57q-28 0 -52 33l-357 474v-397q0 -25 23.5 -50t23.5 -37v-4q0 -19 -25 -19h-128q-24 0 -24 19v4q0 12 20 37t20 50v490q0 25 -20 50t-20 37v4q0 19 24 19h149q31 0 54 -32l325 -452v375q0 25 -22 49.5t-22 36.5v4
q0 19 24 19h131z" />
    <glyph glyph-name="Q.ss01" horiz-adv-x="758" 
d="M761 -49q6 1 10.5 -4t3.5 -13q-3 -47 -58 -83.5t-128 -36.5q-50 0 -97.5 17.5t-79.5 39t-80.5 39t-99.5 17.5q-26 0 -50 -4t-45.5 -10t-24.5 -7q-11 0 -16.5 7.5t-4.5 20t8 23.5q36 58 110 76q-84 46 -133.5 129t-49.5 189q0 165 97.5 267t255.5 102q146 0 249.5 -105.5
t103.5 -264.5q0 -148 -88 -245.5t-222 -112.5q41 -21 60 -30t60.5 -20t84.5 -11q38 0 65.5 4.5t44.5 9.5t24 6zM314 645q-53 0 -82.5 -38t-29.5 -108q0 -95 32 -195.5t86.5 -169.5t111.5 -69q54 0 84 38t30 105q0 86 -32 187.5t-87.5 175.5t-112.5 74z" />
    <glyph glyph-name="R.ss01" horiz-adv-x="702" 
d="M631 109q14 -22 34.5 -38.5t31.5 -26t11 -21.5v-4q0 -19 -24 -19h-244q-24 0 -24 19v4q0 10 12 23.5t17.5 24.5t-4.5 38l-85 158l-92 -2v-156q0 -25 22.5 -49.5t22.5 -36.5v-4q0 -19 -24 -19h-220q-24 0 -24 19v4q0 12 20 36.5t20 49.5v492q0 25 -20 49.5t-20 36.5v4
q0 19 24 19h269q140 0 221 -58t82 -168q0 -57 -32 -108t-93 -80zM264 413q0 -42 15.5 -59.5t47.5 -17.5h30q40 0 65.5 32t25.5 97q0 77 -39.5 126t-88.5 49h-18q-17 0 -27.5 -14.5t-10.5 -37.5v-175z" />
    <glyph glyph-name="Racute.ss01" horiz-adv-x="702" 
d="M250 774q-29 -2 -38 20q-10 26 13 40l192 103q43 22 57 -23l20 -72q6 -20 -2.5 -34t-29.5 -15zM631 109q14 -22 34.5 -38.5t31.5 -26t11 -21.5v-4q0 -19 -24 -19h-244q-24 0 -24 19v4q0 10 12 23.5t17.5 24.5t-4.5 38l-85 158l-92 -2v-156q0 -25 22.5 -49.5t22.5 -36.5
v-4q0 -19 -24 -19h-220q-24 0 -24 19v4q0 12 20 36.5t20 49.5v492q0 25 -20 49.5t-20 36.5v4q0 19 24 19h269q140 0 221 -58t82 -168q0 -57 -32 -108t-93 -80zM264 413q0 -42 15.5 -59.5t47.5 -17.5h30q40 0 65.5 32t25.5 97q0 77 -39.5 126t-88.5 49h-18q-17 0 -27.5 -14.5
t-10.5 -37.5v-175z" />
    <glyph glyph-name="Rcaron.ss01" horiz-adv-x="702" 
d="M267 767l-107 104q-14 15 2.5 32t33.5 9l143 -69l141 69q17 9 33.5 -9.5t2.5 -31.5l-114 -105q-21 -18 -48 -18h-39q-28 0 -48 19zM631 109q14 -22 34.5 -38.5t31.5 -26t11 -21.5v-4q0 -19 -24 -19h-244q-24 0 -24 19v4q0 10 12 23.5t17.5 24.5t-4.5 38l-85 158l-92 -2
v-156q0 -25 22.5 -49.5t22.5 -36.5v-4q0 -19 -24 -19h-220q-24 0 -24 19v4q0 12 20 36.5t20 49.5v492q0 25 -20 49.5t-20 36.5v4q0 19 24 19h269q140 0 221 -58t82 -168q0 -57 -32 -108t-93 -80zM264 413q0 -42 15.5 -59.5t47.5 -17.5h30q40 0 65.5 32t25.5 97
q0 77 -39.5 126t-88.5 49h-18q-17 0 -27.5 -14.5t-10.5 -37.5v-175z" />
    <glyph glyph-name="uni0156.ss01" horiz-adv-x="702" 
d="M631 109q14 -22 34.5 -38.5t31.5 -26t11 -21.5v-4q0 -19 -24 -19h-244q-24 0 -24 19v4q0 10 12 23.5t17.5 24.5t-4.5 38l-85 158l-92 -2v-156q0 -25 22.5 -49.5t22.5 -36.5v-4q0 -19 -24 -19h-220q-24 0 -24 19v4q0 12 20 36.5t20 49.5v492q0 25 -20 49.5t-20 36.5v4
q0 19 24 19h269q140 0 221 -58t82 -168q0 -57 -32 -108t-93 -80zM264 413q0 -42 15.5 -59.5t47.5 -17.5h30q40 0 65.5 32t25.5 97q0 77 -39.5 126t-88.5 49h-18q-17 0 -27.5 -14.5t-10.5 -37.5v-175zM356 -12q39 0 66.5 -29t27.5 -78q0 -116 -131 -195q-15 -9 -27.5 4.5
t-0.5 25.5q28 28 39 43t12 33q2 19 -11 19q-27 0 -45.5 23.5t-18.5 58.5q0 42 24.5 68.5t64.5 26.5z" />
    <glyph glyph-name="U.ss01" horiz-adv-x="721" 
d="M373 -10q-138 0 -221.5 72t-83.5 206v333q0 25 -20 49.5t-20 36.5v4q0 19 24 19h220q24 0 24 -19v-4q0 -12 -22 -36.5t-22 -49.5v-333q0 -203 162 -203q25 0 49 9.5t47.5 30.5t37.5 63t14 100v333q0 25 -20.5 49.5t-20.5 36.5v4q0 19 24 19h127q24 0 24 -19v-4
q0 -12 -22.5 -36.5t-22.5 -49.5v-335q0 -133 -75.5 -204.5t-202.5 -71.5z" />
    <glyph glyph-name="Uacute.ss01" horiz-adv-x="721" 
d="M279 774q-29 -2 -38 20q-10 26 14 40l192 103q21 11 36 4t20 -27l21 -72q5 -20 -3 -34t-30 -15zM373 -10q-138 0 -221.5 72t-83.5 206v333q0 25 -20 49.5t-20 36.5v4q0 19 24 19h220q24 0 24 -19v-4q0 -12 -22 -36.5t-22 -49.5v-333q0 -203 162 -203q25 0 49 9.5
t47.5 30.5t37.5 63t14 100v333q0 25 -20.5 49.5t-20.5 36.5v4q0 19 24 19h127q24 0 24 -19v-4q0 -12 -22.5 -36.5t-22.5 -49.5v-335q0 -133 -75.5 -204.5t-202.5 -71.5z" />
    <glyph glyph-name="Ucircumflex.ss01" horiz-adv-x="721" 
d="M223 759q-21 -11 -40.5 7.5t3.5 43.5l110 114q19 20 47 20h35q28 0 47 -19l122 -115q24 -23 7 -44.5t-48 -6.5l-150 73zM672 710q24 0 24 -19v-4q0 -12 -22.5 -36.5t-22.5 -49.5v-335q0 -133 -75.5 -204.5t-202.5 -71.5q-138 0 -221.5 72t-83.5 206v333q0 25 -20 49.5
t-20 36.5v4q0 19 24 19h220q24 0 24 -19v-4q0 -12 -22 -36.5t-22 -49.5v-333q0 -203 162 -203q25 0 49 9.5t47.5 30.5t37.5 63t14 100v333q0 25 -20.5 49.5t-20.5 36.5v4q0 19 24 19h127z" />
    <glyph glyph-name="Udieresis.ss01" horiz-adv-x="721" 
d="M245 767q-46 0 -74.5 26t-28.5 65t28.5 64.5t74.5 25.5q45 0 73.5 -25.5t28.5 -64.5t-28.5 -65t-73.5 -26zM494 767q-45 0 -73.5 26t-28.5 65t28.5 64.5t73.5 25.5t74 -25.5t29 -64.5t-29 -65t-74 -26zM373 -10q-138 0 -221.5 72t-83.5 206v333q0 25 -20 49.5t-20 36.5v4
q0 19 24 19h220q24 0 24 -19v-4q0 -12 -22 -36.5t-22 -49.5v-333q0 -203 162 -203q25 0 49 9.5t47.5 30.5t37.5 63t14 100v333q0 25 -20.5 49.5t-20.5 36.5v4q0 19 24 19h127q24 0 24 -19v-4q0 -12 -22.5 -36.5t-22.5 -49.5v-335q0 -133 -75.5 -204.5t-202.5 -71.5z" />
    <glyph glyph-name="Ugrave.ss01" horiz-adv-x="721" 
d="M462 767l-213 12q-21 0 -30 14t-4 34l18 72q5 21 19.5 28t36.5 -3l195 -96q25 -12 15 -39q-7 -22 -37 -22zM373 -10q-138 0 -221.5 72t-83.5 206v333q0 25 -20 49.5t-20 36.5v4q0 19 24 19h220q24 0 24 -19v-4q0 -12 -22 -36.5t-22 -49.5v-333q0 -203 162 -203
q25 0 49 9.5t47.5 30.5t37.5 63t14 100v333q0 25 -20.5 49.5t-20.5 36.5v4q0 19 24 19h127q24 0 24 -19v-4q0 -12 -22.5 -36.5t-22.5 -49.5v-335q0 -133 -75.5 -204.5t-202.5 -71.5z" />
    <glyph glyph-name="Uhungarumlaut.ss01" horiz-adv-x="721" 
d="M214 732q-11 10 2 33l104 177q26 42 59 11l35 -34q17 -15 18 -31t-17 -28l-168 -125q-20 -15 -33 -3zM428 732q-10 10 2 33l105 177q25 42 58 11l36 -34q36 -35 0 -59l-168 -125q-20 -15 -33 -3zM373 -10q-138 0 -221.5 72t-83.5 206v333q0 25 -20 49.5t-20 36.5v4
q0 19 24 19h220q24 0 24 -19v-4q0 -12 -22 -36.5t-22 -49.5v-333q0 -203 162 -203q25 0 49 9.5t47.5 30.5t37.5 63t14 100v333q0 25 -20.5 49.5t-20.5 36.5v4q0 19 24 19h127q24 0 24 -19v-4q0 -12 -22.5 -36.5t-22.5 -49.5v-335q0 -133 -75.5 -204.5t-202.5 -71.5z" />
    <glyph glyph-name="Umacron.ss01" horiz-adv-x="721" 
d="M226 790q-24 0 -24 24v61q0 23 24 23h282q25 0 25 -23v-61q0 -24 -25 -24h-282zM373 -10q-138 0 -221.5 72t-83.5 206v333q0 25 -20 49.5t-20 36.5v4q0 19 24 19h220q24 0 24 -19v-4q0 -12 -22 -36.5t-22 -49.5v-333q0 -203 162 -203q25 0 49 9.5t47.5 30.5t37.5 63
t14 100v333q0 25 -20.5 49.5t-20.5 36.5v4q0 19 24 19h127q24 0 24 -19v-4q0 -12 -22.5 -36.5t-22.5 -49.5v-335q0 -133 -75.5 -204.5t-202.5 -71.5z" />
    <glyph glyph-name="Uogonek.ss01" horiz-adv-x="721" 
d="M672 710q24 0 24 -19v-4q0 -12 -22.5 -36.5t-22.5 -49.5v-335q0 -114 -56.5 -183t-154.5 -87q-42 -59 -42 -104q-1 -45 28 -45q8 0 18 3q21 7 28 -17q8 -26 -13 -42q-4 -3 -9 -5q-16 -9 -55 -9q-48 0 -84.5 22t-36.5 70q0 67 81 121q-131 5 -209 77t-78 201v333
q0 25 -20 49.5t-20 36.5v4q0 19 24 19h220q24 0 24 -19v-4q0 -12 -22 -36.5t-22 -49.5v-333q0 -203 162 -203q25 0 49 9.5t47.5 30.5t37.5 63t14 100v333q0 25 -20.5 49.5t-20.5 36.5v4q0 19 24 19h127z" />
    <glyph glyph-name="Uring.ss01" horiz-adv-x="721" 
d="M374 739q-64 0 -106 31t-42 78q0 53 41 84t108 31q65 0 107.5 -30.5t42.5 -77.5q0 -53 -41 -84.5t-110 -31.5zM375 787q47 0 47 65q0 28 -13.5 44t-33.5 16q-47 0 -47 -60q0 -29 14 -47t33 -18zM373 -10q-138 0 -221.5 72t-83.5 206v333q0 25 -20 49.5t-20 36.5v4
q0 19 24 19h220q24 0 24 -19v-4q0 -12 -22 -36.5t-22 -49.5v-333q0 -203 162 -203q25 0 49 9.5t47.5 30.5t37.5 63t14 100v333q0 25 -20.5 49.5t-20.5 36.5v4q0 19 24 19h127q24 0 24 -19v-4q0 -12 -22.5 -36.5t-22.5 -49.5v-335q0 -133 -75.5 -204.5t-202.5 -71.5z" />
    <glyph glyph-name="Utilde.ss01" horiz-adv-x="721" 
d="M312 908q39 0 89.5 -23.5t68.5 -23.5q29 0 45 22q9 14 24 14h8q21 0 16 -23q-11 -51 -42 -84t-74 -33q-34 0 -86 25t-75 25t-39 -19q-2 -2 -5 -6t-4.5 -5.5t-4 -3.5t-5.5 -2.5t-8 -0.5h-11q-19 0 -16 23q10 48 42 81.5t77 33.5zM373 -10q-138 0 -221.5 72t-83.5 206v333
q0 25 -20 49.5t-20 36.5v4q0 19 24 19h220q24 0 24 -19v-4q0 -12 -22 -36.5t-22 -49.5v-333q0 -203 162 -203q25 0 49 9.5t47.5 30.5t37.5 63t14 100v333q0 25 -20.5 49.5t-20.5 36.5v4q0 19 24 19h127q24 0 24 -19v-4q0 -12 -22.5 -36.5t-22.5 -49.5v-335
q0 -133 -75.5 -204.5t-202.5 -71.5z" />
    <glyph glyph-name="W.ss01" horiz-adv-x="1020" 
d="M997 710q23 0 23 -19v-4q0 -13 -25 -35t-35 -51l-189 -551q-17 -50 -67 -50q-51 0 -66 46l-113 347l-114 -343q-16 -50 -60 -50q-27 0 -41 10.5t-24 35.5l-234 554q-12 27 -38.5 50.5t-26.5 37.5v3q0 19 24 19h246q23 0 23 -19v-4q0 -11 -13 -23.5t-22 -28t-2 -35.5
l139 -378l99 304l-24 75q-7 22 -36 47.5t-29 39.5v3q0 19 23 19h242q24 0 24 -19v-3q0 -9 -9 -18.5t-19 -16t-16 -20.5t-1 -32l108 -376l119 376q6 20 -4 35t-23.5 27.5t-13.5 23.5v4q0 19 24 19h151z" />
    <glyph glyph-name="Wacute.ss01" horiz-adv-x="1020" 
d="M458 774q-29 -2 -38 20q-10 26 14 40l192 103q21 11 36 4t20 -27l21 -72q5 -20 -3 -34t-30 -15zM997 710q23 0 23 -19v-4q0 -13 -25 -35t-35 -51l-189 -551q-17 -50 -67 -50q-51 0 -66 46l-113 347l-114 -343q-16 -50 -60 -50q-27 0 -41 10.5t-24 35.5l-234 554
q-12 27 -38.5 50.5t-26.5 37.5v3q0 19 24 19h246q23 0 23 -19v-4q0 -11 -13 -23.5t-22 -28t-2 -35.5l139 -378l99 304l-24 75q-7 22 -36 47.5t-29 39.5v3q0 19 23 19h242q24 0 24 -19v-3q0 -9 -9 -18.5t-19 -16t-16 -20.5t-1 -32l108 -376l119 376q6 20 -4 35t-23.5 27.5
t-13.5 23.5v4q0 19 24 19h151z" />
    <glyph glyph-name="Wcircumflex.ss01" horiz-adv-x="1020" 
d="M403 759q-21 -11 -40.5 7.5t3.5 43.5l110 114q18 20 47 20h35q28 0 47 -19l122 -115q24 -23 7 -44.5t-48 -6.5l-150 73zM997 710q23 0 23 -19v-4q0 -13 -25 -35t-35 -51l-189 -551q-17 -50 -67 -50q-51 0 -66 46l-113 347l-114 -343q-16 -50 -60 -50q-27 0 -41 10.5
t-24 35.5l-234 554q-12 27 -38.5 50.5t-26.5 37.5v3q0 19 24 19h246q23 0 23 -19v-4q0 -11 -13 -23.5t-22 -28t-2 -35.5l139 -378l99 304l-24 75q-7 22 -36 47.5t-29 39.5v3q0 19 23 19h242q24 0 24 -19v-3q0 -9 -9 -18.5t-19 -16t-16 -20.5t-1 -32l108 -376l119 376
q6 20 -4 35t-23.5 27.5t-13.5 23.5v4q0 19 24 19h151z" />
    <glyph glyph-name="Wdieresis.ss01" horiz-adv-x="1020" 
d="M424 767q-46 0 -74.5 26t-28.5 65t28.5 64.5t74.5 25.5q45 0 73.5 -25.5t28.5 -64.5t-28.5 -65t-73.5 -26zM673 767q-45 0 -73.5 26t-28.5 65t28.5 64.5t73.5 25.5t74 -25.5t29 -64.5t-29 -65t-74 -26zM997 710q23 0 23 -19v-4q0 -13 -25 -35t-35 -51l-189 -551
q-17 -50 -67 -50q-51 0 -66 46l-113 347l-114 -343q-16 -50 -60 -50q-27 0 -41 10.5t-24 35.5l-234 554q-12 27 -38.5 50.5t-26.5 37.5v3q0 19 24 19h246q23 0 23 -19v-4q0 -11 -13 -23.5t-22 -28t-2 -35.5l139 -378l99 304l-24 75q-7 22 -36 47.5t-29 39.5v3q0 19 23 19
h242q24 0 24 -19v-3q0 -9 -9 -18.5t-19 -16t-16 -20.5t-1 -32l108 -376l119 376q6 20 -4 35t-23.5 27.5t-13.5 23.5v4q0 19 24 19h151z" />
    <glyph glyph-name="Wgrave.ss01" horiz-adv-x="1020" 
d="M422 779q-21 0 -30 14t-4 34l18 72q5 21 19.5 28t36.5 -3l195 -96q25 -12 15 -39q-7 -22 -37 -22zM997 710q23 0 23 -19v-4q0 -13 -25 -35t-35 -51l-189 -551q-17 -50 -67 -50q-51 0 -66 46l-113 347l-114 -343q-16 -50 -60 -50q-27 0 -41 10.5t-24 35.5l-234 554
q-12 27 -38.5 50.5t-26.5 37.5v3q0 19 24 19h246q23 0 23 -19v-4q0 -11 -13 -23.5t-22 -28t-2 -35.5l139 -378l99 304l-24 75q-7 22 -36 47.5t-29 39.5v3q0 19 23 19h242q24 0 24 -19v-3q0 -9 -9 -18.5t-19 -16t-16 -20.5t-1 -32l108 -376l119 376q6 20 -4 35t-23.5 27.5
t-13.5 23.5v4q0 19 24 19h151z" />
    <glyph glyph-name="i.loclTRK" horiz-adv-x="310" 
d="M160 539q-50 0 -82 28.5t-32 71.5t32 71.5t82 28.5q51 0 82.5 -28.5t31.5 -71.5t-31.5 -71.5t-82.5 -28.5zM52 0q-24 0 -24 19v4q0 12 20 37t20 50v190q0 26 -20 50.5t-20 33.5v4q0 12 23 23l151 74q21 9 33 2t12 -23v-354q0 -25 22.5 -50t22.5 -37v-4q0 -19 -25 -19
h-215z" />
    <glyph glyph-name="uni006A0301" horiz-adv-x="294" 
d="M60 546q-29 -7 -41 13q-14 24 6 42l172 134q38 30 59 -12l33 -68q10 -18 3.5 -33.5t-27.5 -20.5zM62 -199q-74 0 -117 26.5t-43 80.5q0 32 21 52t53 20q29 0 46 -12.5t24 -31t11.5 -36.5t14 -30.5t26.5 -12.5q16 0 26.5 12t10.5 30q0 25 -10.5 46.5t-22.5 34t-22.5 31
t-10.5 39.5v250q0 26 -20 50t-20 34v4q0 11 22 23l152 74q21 9 33.5 2t12.5 -23v-471q0 -80 -39 -127q-55 -65 -148 -65z" />
    <glyph glyph-name="a.ss01" horiz-adv-x="551" 
d="M500 109q3 -24 11.5 -38.5t17 -18.5t15.5 -10t7 -15q0 -33 -113 -33q-46 0 -68.5 11t-28.5 37q-38 -52 -127 -52q-84 0 -136.5 39t-52.5 113q0 72 52 112.5t128 40.5q59 0 101 -25v3q-10 99 -22.5 134t-48.5 35q-23 0 -37 -21t-20.5 -46t-24.5 -46t-48 -21
q-31 0 -50.5 18t-19.5 47q0 58 58 87.5t142 29.5q100 0 165.5 -54.5t77.5 -147.5zM269 41q23 0 37.5 22t14.5 50l-4 46q-10 83 -62 83q-23 0 -37 -18.5t-14 -49.5q0 -56 17.5 -94.5t47.5 -38.5z" />
    <glyph glyph-name="aacute.ss01" horiz-adv-x="551" 
d="M163 546q-29 -7 -41 13q-14 24 7 42l171 134q19 14 35 10.5t25 -22.5l32 -68q10 -18 3.5 -33.5t-26.5 -20.5zM500 109q3 -24 11.5 -38.5t17 -18.5t15.5 -10t7 -15q0 -33 -113 -33q-46 0 -68.5 11t-28.5 37q-38 -52 -127 -52q-84 0 -136.5 39t-52.5 113q0 72 52 112.5
t128 40.5q59 0 101 -25v3q-10 99 -22.5 134t-48.5 35q-23 0 -37 -21t-20.5 -46t-24.5 -46t-48 -21q-31 0 -50.5 18t-19.5 47q0 58 58 87.5t142 29.5q100 0 165.5 -54.5t77.5 -147.5zM269 41q23 0 37.5 22t14.5 50l-4 46q-10 83 -62 83q-23 0 -37 -18.5t-14 -49.5
q0 -56 17.5 -94.5t47.5 -38.5z" />
    <glyph glyph-name="abreve.ss01" horiz-adv-x="551" 
d="M251 546q-72 0 -119.5 39t-55.5 97q-3 24 23.5 30.5t35.5 -9.5q12 -23 45 -37.5t71 -14.5q40 0 72.5 14t44.5 38q8 14 34.5 7t24.5 -28q-8 -59 -55 -97.5t-121 -38.5zM500 109q3 -24 11.5 -38.5t17 -18.5t15.5 -10t7 -15q0 -33 -113 -33q-46 0 -68.5 11t-28.5 37
q-38 -52 -127 -52q-84 0 -136.5 39t-52.5 113q0 72 52 112.5t128 40.5q59 0 101 -25v3q-10 99 -22.5 134t-48.5 35q-23 0 -37 -21t-20.5 -46t-24.5 -46t-48 -21q-31 0 -50.5 18t-19.5 47q0 58 58 87.5t142 29.5q100 0 165.5 -54.5t77.5 -147.5zM269 41q23 0 37.5 22t14.5 50
l-4 46q-10 83 -62 83q-23 0 -37 -18.5t-14 -49.5q0 -56 17.5 -94.5t47.5 -38.5z" />
    <glyph glyph-name="acircumflex.ss01" horiz-adv-x="551" 
d="M109 544q-21 -11 -40.5 7t3.5 44l110 113q19 21 47 21h35q27 0 47 -20l122 -114q24 -23 7 -45t-48 -6l-150 73zM500 109q3 -24 11.5 -38.5t17 -18.5t15.5 -10t7 -15q0 -33 -113 -33q-46 0 -68.5 11t-28.5 37q-38 -52 -127 -52q-84 0 -136.5 39t-52.5 113q0 72 52 112.5
t128 40.5q59 0 101 -25v3q-10 99 -22.5 134t-48.5 35q-23 0 -37 -21t-20.5 -46t-24.5 -46t-48 -21q-31 0 -50.5 18t-19.5 47q0 58 58 87.5t142 29.5q100 0 165.5 -54.5t77.5 -147.5zM269 41q23 0 37.5 22t14.5 50l-4 46q-10 83 -62 83q-23 0 -37 -18.5t-14 -49.5
q0 -56 17.5 -94.5t47.5 -38.5z" />
    <glyph glyph-name="adieresis.ss01" horiz-adv-x="551" 
d="M128 544q-46 0 -74.5 26t-28.5 65t28.5 64.5t74.5 25.5q45 0 73.5 -25.5t28.5 -64.5t-28.5 -65t-73.5 -26zM377 544q-45 0 -73.5 26t-28.5 65t28.5 64.5t73.5 25.5t74 -25.5t29 -64.5t-29 -65t-74 -26zM500 109q3 -24 11.5 -38.5t17 -18.5t15.5 -10t7 -15q0 -33 -113 -33
q-46 0 -68.5 11t-28.5 37q-38 -52 -127 -52q-84 0 -136.5 39t-52.5 113q0 72 52 112.5t128 40.5q59 0 101 -25v3q-10 99 -22.5 134t-48.5 35q-23 0 -37 -21t-20.5 -46t-24.5 -46t-48 -21q-31 0 -50.5 18t-19.5 47q0 58 58 87.5t142 29.5q100 0 165.5 -54.5t77.5 -147.5z
M269 41q23 0 37.5 22t14.5 50l-4 46q-10 83 -62 83q-23 0 -37 -18.5t-14 -49.5q0 -56 17.5 -94.5t47.5 -38.5z" />
    <glyph glyph-name="agrave.ss01" horiz-adv-x="551" 
d="M128 595q-20 5 -26.5 20.5t3.5 33.5l33 68q21 42 59 12l172 -135q21 -17 6 -41q-12 -20 -41 -13zM500 109q3 -24 11.5 -38.5t17 -18.5t15.5 -10t7 -15q0 -33 -113 -33q-46 0 -68.5 11t-28.5 37q-38 -52 -127 -52q-84 0 -136.5 39t-52.5 113q0 72 52 112.5t128 40.5
q59 0 101 -25v3q-10 99 -22.5 134t-48.5 35q-23 0 -37 -21t-20.5 -46t-24.5 -46t-48 -21q-31 0 -50.5 18t-19.5 47q0 58 58 87.5t142 29.5q100 0 165.5 -54.5t77.5 -147.5zM269 41q23 0 37.5 22t14.5 50l-4 46q-10 83 -62 83q-23 0 -37 -18.5t-14 -49.5q0 -56 17.5 -94.5
t47.5 -38.5z" />
    <glyph glyph-name="amacron.ss01" horiz-adv-x="551" 
d="M111 577q-24 0 -24 24v60q0 24 24 24h283q24 0 24 -24v-60q0 -24 -24 -24h-283zM500 109q3 -24 11.5 -38.5t17 -18.5t15.5 -10t7 -15q0 -33 -113 -33q-46 0 -68.5 11t-28.5 37q-38 -52 -127 -52q-84 0 -136.5 39t-52.5 113q0 72 52 112.5t128 40.5q59 0 101 -25v3
q-10 99 -22.5 134t-48.5 35q-23 0 -37 -21t-20.5 -46t-24.5 -46t-48 -21q-31 0 -50.5 18t-19.5 47q0 58 58 87.5t142 29.5q100 0 165.5 -54.5t77.5 -147.5zM269 41q23 0 37.5 22t14.5 50l-4 46q-10 83 -62 83q-23 0 -37 -18.5t-14 -49.5q0 -56 17.5 -94.5t47.5 -38.5z" />
    <glyph glyph-name="aogonek.ss01" horiz-adv-x="551" 
d="M492 -3q-42 -58 -42 -104q-1 -45 29 -45q9 0 18 4q20 7 27 -17q8 -27 -12 -43q-4 -3 -9 -5q-20 -8 -55 -8q-49 0 -85 22t-36 70q0 69 86 124q-62 4 -72 47q-38 -52 -127 -52q-84 0 -136.5 39t-52.5 113q0 72 52 112.5t128 40.5q59 0 101 -25v3q-10 99 -22.5 134t-48.5 35
q-23 0 -37 -21t-20.5 -46t-24.5 -46t-48 -21q-31 0 -50.5 18t-19.5 47q0 58 58 87.5t142 29.5q100 0 165.5 -54.5t77.5 -147.5l22 -179q3 -24 11.5 -38.5t17 -18.5t15.5 -10t7 -15q0 -23 -59 -30zM269 41q23 0 37.5 22t14.5 50l-4 46q-10 83 -62 83q-23 0 -37 -18.5
t-14 -49.5q0 -56 17.5 -94.5t47.5 -38.5z" />
    <glyph glyph-name="aring.ss01" horiz-adv-x="551" 
d="M251 532q-63 0 -105.5 31.5t-42.5 77.5q0 53 41 84t108 31q65 0 107.5 -30.5t42.5 -77.5q0 -52 -41 -84t-110 -32zM252 706q-46 0 -46 -61q0 -29 13.5 -47t32.5 -18q47 0 47 65q0 29 -13.5 45t-33.5 16zM500 109q3 -24 11.5 -38.5t17 -18.5t15.5 -10t7 -15
q0 -33 -113 -33q-46 0 -68.5 11t-28.5 37q-38 -52 -127 -52q-84 0 -136.5 39t-52.5 113q0 72 52 112.5t128 40.5q59 0 101 -25v3q-10 99 -22.5 134t-48.5 35q-23 0 -37 -21t-20.5 -46t-24.5 -46t-48 -21q-31 0 -50.5 18t-19.5 47q0 58 58 87.5t142 29.5q100 0 165.5 -54.5
t77.5 -147.5zM269 41q23 0 37.5 22t14.5 50l-4 46q-10 83 -62 83q-23 0 -37 -18.5t-14 -49.5q0 -56 17.5 -94.5t47.5 -38.5z" />
    <glyph glyph-name="atilde.ss01" horiz-adv-x="551" 
d="M81 584q-8 0 -12.5 6t-2.5 17q10 48 41.5 81.5t76.5 33.5q39 0 89.5 -23.5t68.5 -23.5q29 0 45 22q11 14 25 14h7q21 0 16 -23q-11 -51 -41.5 -84t-73.5 -33q-34 0 -86.5 25t-75.5 25t-39 -19q-2 -3 -5 -6.5t-4 -5t-3.5 -3.5t-5.5 -2.5t-8 -0.5h-12zM500 109
q3 -24 11.5 -38.5t17 -18.5t15.5 -10t7 -15q0 -33 -113 -33q-46 0 -68.5 11t-28.5 37q-38 -52 -127 -52q-84 0 -136.5 39t-52.5 113q0 72 52 112.5t128 40.5q59 0 101 -25v3q-10 99 -22.5 134t-48.5 35q-23 0 -37 -21t-20.5 -46t-24.5 -46t-48 -21q-31 0 -50.5 18t-19.5 47
q0 58 58 87.5t142 29.5q100 0 165.5 -54.5t77.5 -147.5zM269 41q23 0 37.5 22t14.5 50l-4 46q-10 83 -62 83q-23 0 -37 -18.5t-14 -49.5q0 -56 17.5 -94.5t47.5 -38.5z" />
    <glyph glyph-name="e.ss01" horiz-adv-x="489" 
d="M435 158q11 11 24.5 6.5t12.5 -20.5q-2 -50 -58 -102t-145 -52q-109 0 -178 70t-69 183q0 108 72.5 177.5t173.5 69.5q91 0 141 -42t50 -95q0 -42 -39 -62l-199 -112q41 -65 114 -65q31 0 58.5 12.5t41.5 31.5zM250 441q-30 0 -48.5 -30t-18.5 -75q0 -60 15 -105l93 56
q26 18 26 51t-16.5 68t-50.5 35z" />
    <glyph glyph-name="eacute.ss01" horiz-adv-x="489" 
d="M161 546q-29 -7 -41 13q-14 24 7 42l171 134q19 14 35 10.5t25 -22.5l32 -68q10 -18 3.5 -33.5t-26.5 -20.5zM435 158q11 11 24.5 6.5t12.5 -20.5q-2 -50 -58 -102t-145 -52q-109 0 -178 70t-69 183q0 108 72.5 177.5t173.5 69.5q91 0 141 -42t50 -95q0 -42 -39 -62
l-199 -112q41 -65 114 -65q31 0 58.5 12.5t41.5 31.5zM250 441q-30 0 -48.5 -30t-18.5 -75q0 -60 15 -105l93 56q26 18 26 51t-16.5 68t-50.5 35z" />
    <glyph glyph-name="ecaron.ss01" horiz-adv-x="489" 
d="M180 564l-107 112q-14 16 2.5 33.5t33.5 9.5l143 -74l141 74q17 9 33.5 -10.5t2.5 -32.5l-114 -113q-20 -19 -48 -19h-39q-28 0 -48 20zM435 158q11 11 24.5 6.5t12.5 -20.5q-2 -50 -58 -102t-145 -52q-109 0 -178 70t-69 183q0 108 72.5 177.5t173.5 69.5q91 0 141 -42
t50 -95q0 -42 -39 -62l-199 -112q41 -65 114 -65q31 0 58.5 12.5t41.5 31.5zM250 441q-30 0 -48.5 -30t-18.5 -75q0 -60 15 -105l93 56q26 18 26 51t-16.5 68t-50.5 35z" />
    <glyph glyph-name="ecircumflex.ss01" horiz-adv-x="489" 
d="M107 544q-21 -11 -40 7t3 44l110 113q19 21 48 21h34q28 0 48 -20l122 -114q23 -23 6.5 -45t-47.5 -6l-150 73zM435 158q11 11 24.5 6.5t12.5 -20.5q-2 -50 -58 -102t-145 -52q-109 0 -178 70t-69 183q0 108 72.5 177.5t173.5 69.5q91 0 141 -42t50 -95q0 -42 -39 -62
l-199 -112q41 -65 114 -65q31 0 58.5 12.5t41.5 31.5zM250 441q-30 0 -48.5 -30t-18.5 -75q0 -60 15 -105l93 56q26 18 26 51t-16.5 68t-50.5 35z" />
    <glyph glyph-name="edieresis.ss01" horiz-adv-x="489" 
d="M126 544q-46 0 -74.5 26t-28.5 65t28.5 64.5t74.5 25.5q45 0 73.5 -25.5t28.5 -64.5t-28.5 -65t-73.5 -26zM375 544q-45 0 -73.5 26t-28.5 65t28.5 64.5t73.5 25.5t74 -25.5t29 -64.5t-29 -65t-74 -26zM435 158q11 11 24.5 6.5t12.5 -20.5q-2 -50 -58 -102t-145 -52
q-109 0 -178 70t-69 183q0 108 72.5 177.5t173.5 69.5q91 0 141 -42t50 -95q0 -42 -39 -62l-199 -112q41 -65 114 -65q31 0 58.5 12.5t41.5 31.5zM250 441q-30 0 -48.5 -30t-18.5 -75q0 -60 15 -105l93 56q26 18 26 51t-16.5 68t-50.5 35z" />
    <glyph glyph-name="edotaccent.ss01" horiz-adv-x="489" 
d="M249 539q-51 0 -82.5 28.5t-31.5 71.5t31.5 71.5t82.5 28.5q50 0 82 -28.5t32 -71.5t-32 -71.5t-82 -28.5zM435 158q11 11 24.5 6.5t12.5 -20.5q-2 -50 -58 -102t-145 -52q-109 0 -178 70t-69 183q0 108 72.5 177.5t173.5 69.5q91 0 141 -42t50 -95q0 -42 -39 -62
l-199 -112q41 -65 114 -65q31 0 58.5 12.5t41.5 31.5zM250 441q-30 0 -48.5 -30t-18.5 -75q0 -60 15 -105l93 56q26 18 26 51t-16.5 68t-50.5 35z" />
    <glyph glyph-name="egrave.ss01" horiz-adv-x="489" 
d="M127 595q-21 5 -27 20.5t3 33.5l33 68q21 42 60 12l171 -135q21 -16 7 -41q-14 -20 -41 -13zM435 158q11 11 24.5 6.5t12.5 -20.5q-2 -50 -58 -102t-145 -52q-109 0 -178 70t-69 183q0 108 72.5 177.5t173.5 69.5q91 0 141 -42t50 -95q0 -42 -39 -62l-199 -112
q41 -65 114 -65q31 0 58.5 12.5t41.5 31.5zM250 441q-30 0 -48.5 -30t-18.5 -75q0 -60 15 -105l93 56q26 18 26 51t-16.5 68t-50.5 35z" />
    <glyph glyph-name="emacron.ss01" horiz-adv-x="489" 
d="M109 577q-24 0 -24 24v60q0 24 24 24h283q24 0 24 -24v-60q0 -24 -24 -24h-283zM435 158q11 11 24.5 6.5t12.5 -20.5q-2 -50 -58 -102t-145 -52q-109 0 -178 70t-69 183q0 108 72.5 177.5t173.5 69.5q91 0 141 -42t50 -95q0 -42 -39 -62l-199 -112q41 -65 114 -65
q31 0 58.5 12.5t41.5 31.5zM250 441q-30 0 -48.5 -30t-18.5 -75q0 -60 15 -105l93 56q26 18 26 51t-16.5 68t-50.5 35z" />
    <glyph glyph-name="eogonek.ss01" horiz-adv-x="489" 
d="M435 158q11 11 24.5 6.5t12.5 -20.5q-1 -29 -24 -64t-63 -59q-51 -66 -51 -116q-1 -45 29 -45q3 0 17 4q21 7 28 -16q8 -27 -12 -44q-4 -3 -9 -5q-20 -8 -55 -8q-49 0 -85.5 22t-36.5 70q0 59 62 107h-3q-109 0 -178 70t-69 183q0 108 72.5 177.5t173.5 69.5
q91 0 141 -42t50 -95q0 -42 -39 -62l-199 -112q41 -65 114 -65q31 0 58.5 12.5t41.5 31.5zM250 441q-30 0 -48.5 -30t-18.5 -75q0 -60 15 -105l93 56q26 18 26 51t-16.5 68t-50.5 35z" />
    <glyph glyph-name="g.ss01" horiz-adv-x="555" 
d="M464 480q47 0 61 -7.5t12 -25.5q-1 -14 -9.5 -22.5t-17 -11t-25 -6t-23.5 -5.5q49 -56 49 -124q0 -117 -108 -172q64 -14 91 -40.5t27 -66.5q0 -59 -75 -96.5t-186 -37.5q-109 0 -172.5 34t-63.5 97q0 26 18 46t51 20q30 0 51.5 -23t32 -51t32 -51.5t52.5 -23.5
q39 -1 61 22.5t22 61.5q0 69 -42 81q-22 -2 -36 -2q-106 0 -174.5 56t-68.5 145q0 95 68.5 154t176.5 59q28 0 88 -5t108 -5zM190 357q0 -79 31 -155t70 -76q25 0 39.5 22.5t14.5 61.5q0 71 -31 151t-72 80q-24 0 -38 -22t-14 -62z" />
    <glyph glyph-name="gbreve.ss01" horiz-adv-x="555" 
d="M291 544q-71 0 -119 39.5t-56 97.5q-3 23 23 30t35 -9q13 -24 46 -38.5t71 -14.5q39 0 71.5 14.5t45.5 38.5q5 8 20 8.5t27.5 -8t11.5 -21.5q-8 -59 -55 -98t-121 -39zM464 480q47 0 61 -7.5t12 -25.5q-1 -14 -9.5 -22.5t-17 -11t-25 -6t-23.5 -5.5q49 -56 49 -124
q0 -117 -108 -172q64 -14 91 -40.5t27 -66.5q0 -59 -75 -96.5t-186 -37.5q-109 0 -172.5 34t-63.5 97q0 26 18 46t51 20q30 0 51.5 -23t32 -51t32 -51.5t52.5 -23.5q39 -1 61 22.5t22 61.5q0 69 -42 81q-22 -2 -36 -2q-106 0 -174.5 56t-68.5 145q0 95 68.5 154t176.5 59
q28 0 88 -5t108 -5zM190 357q0 -79 31 -155t70 -76q25 0 39.5 22.5t14.5 61.5q0 71 -31 151t-72 80q-24 0 -38 -22t-14 -62z" />
    <glyph glyph-name="uni0123.ss01" horiz-adv-x="555" 
d="M276 534q-40 0 -69 30t-29 81q0 121 137 203q16 10 29 -4t0 -27q-29 -30 -40 -45t-13 -34q-2 -20 12 -20q27 0 46.5 -24.5t19.5 -61.5q0 -44 -25.5 -71t-67.5 -27zM464 480q47 0 61 -7.5t12 -25.5q-1 -14 -9.5 -22.5t-17 -11t-25 -6t-23.5 -5.5q49 -56 49 -124
q0 -117 -108 -172q64 -14 91 -40.5t27 -66.5q0 -59 -75 -96.5t-186 -37.5q-109 0 -172.5 34t-63.5 97q0 26 18 46t51 20q30 0 51.5 -23t32 -51t32 -51.5t52.5 -23.5q39 -1 61 22.5t22 61.5q0 69 -42 81q-22 -2 -36 -2q-106 0 -174.5 56t-68.5 145q0 95 68.5 154t176.5 59
q28 0 88 -5t108 -5zM190 357q0 -79 31 -155t70 -76q25 0 39.5 22.5t14.5 61.5q0 71 -31 151t-72 80q-24 0 -38 -22t-14 -62z" />
    <glyph glyph-name="gdotaccent.ss01" horiz-adv-x="555" 
d="M291 537q-51 0 -83 29t-32 72t32 71.5t83 28.5q50 0 81.5 -28.5t31.5 -71.5t-31.5 -72t-81.5 -29zM464 480q47 0 61 -7.5t12 -25.5q-1 -14 -9.5 -22.5t-17 -11t-25 -6t-23.5 -5.5q49 -56 49 -124q0 -117 -108 -172q64 -14 91 -40.5t27 -66.5q0 -59 -75 -96.5t-186 -37.5
q-109 0 -172.5 34t-63.5 97q0 26 18 46t51 20q30 0 51.5 -23t32 -51t32 -51.5t52.5 -23.5q39 -1 61 22.5t22 61.5q0 69 -42 81q-22 -2 -36 -2q-106 0 -174.5 56t-68.5 145q0 95 68.5 154t176.5 59q28 0 88 -5t108 -5zM190 357q0 -79 31 -155t70 -76q25 0 39.5 22.5
t14.5 61.5q0 71 -31 151t-72 80q-24 0 -38 -22t-14 -62z" />
    <glyph glyph-name="k.ss01" horiz-adv-x="593" 
d="M556 84q5 -7 30.5 -26t25.5 -35v-4q0 -19 -23 -19h-210q-23 0 -23 20v3q0 12 15 29.5t6 31.5l-88 131l-50 -46v-60q0 -25 22.5 -49.5t22.5 -36.5v-4q0 -19 -24 -19h-216q-24 0 -24 19v4q0 12 20 36.5t20 49.5v457q0 26 -24 50.5t-24 34.5v4q0 11 22 23l160 74q21 8 33 1
t12 -22v-475l135 116q12 8 9.5 20t-10 21.5t-16 21.5t-8.5 21v4q0 20 23 20h158q23 0 23 -19v-4q0 -12 -14 -24.5t-39.5 -29t-40.5 -30.5l-64 -59z" />
    <glyph glyph-name="uni0137.ss01" horiz-adv-x="594" 
d="M556 84q5 -7 30.5 -26t25.5 -35v-4q0 -19 -23 -19h-210q-23 0 -23 20v3q0 12 15 29.5t6 31.5l-88 131l-50 -46v-60q0 -25 22.5 -49.5t22.5 -36.5v-4q0 -19 -24 -19h-216q-24 0 -24 19v4q0 12 20 36.5t20 49.5v457q0 26 -24 50.5t-24 34.5v4q0 11 22 23l160 74q21 8 33 1
t12 -22v-475l135 116q12 8 9.5 20t-10 21.5t-16 21.5t-8.5 21v4q0 20 23 20h158q23 0 23 -19v-4q0 -12 -14 -24.5t-39.5 -29t-40.5 -30.5l-64 -59zM298 -30q39 0 66.5 -28.5t27.5 -78.5q0 -115 -131 -194q-15 -9 -28 4t0 26q27 27 38 42t13 33q2 20 -12 20q-26 0 -44.5 23.5
t-18.5 58.5q0 42 24 68t65 26z" />
    </font>
</defs>
</svg>
