<?xml version="1.0" standalone="no"?>
<!DOCTYPE svg PUBLIC "-//W3C//DTD SVG 1.1//EN" "http://www.w3.org/Graphics/SVG/1.1/DTD/svg11.dtd" >
<svg xmlns="http://www.w3.org/2000/svg" xmlns:xlink="http://www.w3.org/1999/xlink" version="1.1">
<metadata>
Created by FontForge 20170731 at Fri Jun  8 02:15:04 2018
 By Aleksey,,,
Copyright (c) 2018 by Jorge Cisterna. All rights reserved.
</metadata>
<defs>
<font id="RecoletaAlt-Regular" horiz-adv-x="600" >
  <font-face 
    font-family="Recoleta Alt"
    font-weight="400"
    font-stretch="normal"
    units-per-em="1000"
    panose-1="0 0 5 0 0 0 0 0 0 0"
    ascent="800"
    descent="-200"
    x-height="480"
    cap-height="710"
    bbox="-701 -300.062 1351 959"
    underline-thickness="50"
    underline-position="-250"
    unicode-range="U+0020-FB02"
  />
<missing-glyph horiz-adv-x="530" 
d="M50 730h430v-730h-430v730zM115 695l150 -287l150 287h-300zM243 365l-153 292v-584zM288 365l152 -292v584zM265 322l-150 -287h300z" />
    <glyph glyph-name="fi" unicode="fi" horiz-adv-x="603" 
d="M314 705q-51 0 -88 -43t-37 -113v-69h141q6 0 10 -4.5t4 -9.5v-13q0 -13 -14 -13h-141v-369q0 -15 11 -25t22.5 -17t11.5 -14v-3q0 -12 -15 -12h-139q-15 0 -15 12v3q0 7 9.5 14t19 17t9.5 25v369h-83q-15 0 -15 13v13q0 14 15 14h83v61q0 91 62.5 143.5t161.5 52.5
q84 0 136 -40.5t52 -79.5q0 -16 -10 -26t-26 -10q-20 0 -34 12.5t-24 31t-21.5 36.5t-33.5 31t-52 13zM529 71q0 -12 6 -20.5t13.5 -12.5t13.5 -9.5t6 -11.5v-4q0 -13 -20 -13h-125q-19 0 -19 13v4q0 7 9 13.5t18 16t9 24.5v298q0 23 -18 40t-18 22v2q0 7 15 15l79 38
q15 7 23 2t8 -16v-401z" />
    <glyph glyph-name="fl" unicode="fl" horiz-adv-x="603" 
d="M529 70q0 -19 19.5 -32.5t19.5 -21.5v-3q0 -13 -20 -13h-125q-19 0 -19 13v3q0 8 17.5 21.5t17.5 32.5v528q-7 8 -23.5 39.5t-39 49t-62.5 18.5q-51 1 -88 -42.5t-37 -113.5v-69h141q6 0 10 -4.5t4 -9.5v-13q0 -13 -14 -13h-141v-369q0 -15 11 -25t22.5 -17t11.5 -14v-3
q0 -12 -15 -12h-139q-15 0 -15 12v3q0 7 9.5 14t19 17t9.5 25v369h-83q-15 0 -15 13v13q0 14 15 14h83v61q0 91 62.5 143.5t161.5 52.5q67 0 116 -27l55 27q14 7 22.5 2t8.5 -16v-653z" />
    <glyph glyph-name=".notdef" horiz-adv-x="530" 
d="M50 730h430v-730h-430v730zM115 695l150 -287l150 287h-300zM243 365l-153 292v-584zM288 365l152 -292v584zM265 322l-150 -287h300z" />
    <glyph glyph-name=".null" horiz-adv-x="0" 
 />
    <glyph glyph-name="nonmarkingreturn" horiz-adv-x="333" 
 />
    <glyph glyph-name="space" unicode=" " horiz-adv-x="225" 
 />
    <glyph glyph-name="exclam" unicode="!" horiz-adv-x="244" 
d="M101 186q-19 185 -27 502q0 23 24.5 33t49 1t24.5 -33q-7 -298 -31 -503q-2 -14 -20 -14t-20 14zM123 -11q-27 0 -45.5 15.5t-18.5 43.5t18.5 44.5t45.5 16.5t45 -16.5t18 -44.5t-18 -43.5t-45 -15.5z" />
    <glyph glyph-name="quotedbl" unicode="&#x22;" horiz-adv-x="365" 
d="M70 450q-17 89 -22 228q-1 23 13 36t34 13q21 0 35 -12.5t14 -36.5q-2 -43 -11 -121t-15 -107q-5 -19 -24.5 -19t-23.5 19zM246 450q-17 89 -22 228q-1 23 13 36t34 13q21 0 35 -12.5t14 -36.5q-2 -43 -11 -121t-15 -107q-5 -19 -24.5 -19t-23.5 19z" />
    <glyph glyph-name="numbersign" unicode="#" horiz-adv-x="681" 
d="M637 480q14 0 14 -11v-26q0 -11 -14 -11h-128l-40 -151h131q15 0 15 -10v-28q0 -10 -15 -10h-143l-59 -224q-1 -9 -17 -9h-32q-14 0 -9 17l58 216h-186l-59 -224q-1 -9 -16 -9h-33q-12 0 -9 17l58 216h-107q-15 0 -15 10v28q0 10 15 10h120l40 151h-125q-14 0 -14 11v26
q0 11 14 11h138l48 180q3 10 15 10h31q13 0 10 -17l-46 -173h187l48 180q1 10 14 10h32q14 0 9 -17l-45 -173h115zM411 281l40 151h-186l-40 -151h186z" />
    <glyph glyph-name="dollar" unicode="$" horiz-adv-x="545" 
d="M509 188q0 -72 -61.5 -128t-155.5 -62v-95q0 -15 -11 -15h-19q-10 0 -10 15v94q-52 3 -96 20.5t-70 41t-40 47t-14 41.5q0 22 11 34t30 12q21 0 39.5 -23t31.5 -51.5t41.5 -55.5t66.5 -33v286q-35 13 -50.5 19.5t-45.5 21t-45 28t-32.5 34t-25 47t-7.5 58.5q0 77 58 129
t152 56v65q0 14 11 14h18q11 0 11 -14v-66q89 -6 143 -49t54 -88q0 -48 -43 -48q-20 0 -34.5 21.5t-24 47.5t-34 51t-61.5 31v-276q101 -37 137 -62q76 -52 76 -148zM137 553q0 -54 31 -85.5t88 -54.5v262q-53 -4 -86 -38t-33 -84zM292 29q51 5 88 44t37 88q0 53 -32 83.5
t-93 55.5v-271z" />
    <glyph glyph-name="percent" unicode="%" horiz-adv-x="873" 
d="M204 341q-74 0 -124.5 54.5t-50.5 135.5q0 83 47.5 136t124.5 53q72 0 122 -56t50 -136q0 -83 -48.5 -135t-120.5 -52zM223 0q-8 0 -10.5 5t1.5 12l388 684q6 9 14 9h32q8 0 10.5 -5t-1.5 -12l-385 -684q-5 -9 -17 -9h-32zM213 370q41 0 63.5 37t22.5 93q0 74 -31 132
t-80 58q-43 0 -66 -37.5t-23 -94.5q0 -76 31.5 -132t82.5 -56zM675 -10q-74 0 -124.5 55t-50.5 136q0 83 47.5 135.5t124.5 52.5q72 0 122 -55.5t50 -135.5q0 -83 -48.5 -135.5t-120.5 -52.5zM684 20q41 0 63.5 36.5t22.5 92.5q0 74 -31 132.5t-80 58.5q-42 0 -65.5 -37.5
t-23.5 -94.5q0 -76 31.5 -132t82.5 -56z" />
    <glyph glyph-name="ampersand" unicode="&#x26;" horiz-adv-x="720" 
d="M693 51q18 0 18 -13v-5q0 -15 -23 -29t-53 -14q-34 0 -58 15t-57 49l-23 25q-92 -89 -215 -89q-118 0 -181 51t-63 135q0 111 175 205q-47 50 -70 90t-23 88q0 69 56 114.5t146 46.5q76 1 138 -38.5t62 -82.5q0 -16 -11 -26.5t-29 -10.5q-24 0 -41 19t-27.5 41.5
t-37 41.5t-67.5 19q-43 0 -71.5 -29.5t-28.5 -73.5q0 -33 15 -65t29 -49t52 -56q3 -4 5.5 -6.5l5.5 -5.5l197 -207q54 108 54 221q0 20 -20.5 32.5t-20.5 19.5v4q0 14 21 14h105q20 0 20 -14v-4q0 -7 -20 -19.5t-20 -32.5q0 -143 -78 -264l42 -44q29 -32 44 -42.5t29 -10.5
h24zM293 24q96 0 171 90l-221 235q-115 -71 -115 -176q0 -62 47 -105.5t118 -43.5z" />
    <glyph glyph-name="quotesingle" unicode="'" horiz-adv-x="189" 
d="M70 450q-17 89 -22 228q-1 23 13 36t34 13q21 0 35 -12.5t14 -36.5q-2 -43 -11 -121t-15 -107q-5 -19 -24.5 -19t-23.5 19z" />
    <glyph glyph-name="parenleft" unicode="(" horiz-adv-x="256" 
d="M202 -95q-163 165 -163 432q0 268 164 432q15 14 26.5 5.5t1.5 -26.5q-109 -154 -109 -411t109 -411q10 -18 -2 -26.5t-27 5.5z" />
    <glyph glyph-name="parenright" unicode=")" horiz-adv-x="257" 
d="M54 -95q-15 -14 -27 -5.5t-2 26.5q110 155 110 411t-110 411q-10 18 1.5 26.5t26.5 -5.5q164 -164 164 -432q0 -265 -163 -432z" />
    <glyph glyph-name="asterisk" unicode="*" horiz-adv-x="383" 
d="M146 424q-13 -28 -42 -17q-24 10 -24 31q1 13 11 22l80 79l-105 19q-29 2 -30 27q-2 23 18 33q13 6 29 -2l95 -49l-19 107q-4 19 5.5 30.5t29.5 12.5q19 1 28.5 -11t4.5 -32l-20 -107l94 49q27 15 41 -9q14 -23 -2 -40q-7 -8 -21 -9l-104 -19l80 -80q21 -20 1 -42
q-18 -20 -40 -10q-11 5 -17 19l-46 97z" />
    <glyph glyph-name="plus" unicode="+" 
d="M281 66q-11 0 -11 15v161h-159q-14 0 -16 10l1 37q0 10 15 10h159v161q0 15 11 15h38q11 0 11 -15v-161l160 1q15 0 15 -11v-37q0 -10 -15 -10h-159v-161q0 -15 -12 -15h-38z" />
    <glyph glyph-name="comma" unicode="," horiz-adv-x="209" 
d="M64 -135q-11 -7 -19.5 2t1.5 19q46 45 55 89q3 15 -8 15q-22 0 -36 16.5t-14 43.5q0 29 16.5 47t44.5 18q26 0 44.5 -20.5t18.5 -53.5q0 -105 -103 -176z" />
    <glyph glyph-name="hyphen" unicode="-" horiz-adv-x="458" 
d="M70 294q-14 0 -14 15v21q0 13 14 13h318q14 0 14 -13v-21q0 -15 -14 -15h-318z" />
    <glyph glyph-name="period" unicode="." horiz-adv-x="223" 
d="M112 -10q-28 0 -46 15.5t-18 43.5q0 29 18 45t46 16q27 0 45 -16t18 -45q0 -28 -18 -43.5t-45 -15.5z" />
    <glyph glyph-name="slash" unicode="/" horiz-adv-x="367" 
d="M39 -102q-15 0 -10 16l251 873q3 10 16 10h32q14 0 9 -17l-248 -872q-3 -10 -18 -10h-32z" />
    <glyph glyph-name="zero" unicode="0" horiz-adv-x="658" 
d="M336 -10q-128 0 -210 100.5t-82 268.5t75.5 264.5t209.5 96.5q124 0 205 -102t81 -264q0 -168 -78 -266t-201 -98zM349 30q78 0 127.5 76.5t49.5 207.5q0 153 -60.5 259t-152.5 106q-80 0 -130 -77t-50 -210q0 -156 60.5 -259t155.5 -103z" />
    <glyph glyph-name="one" unicode="1" horiz-adv-x="292" 
d="M80 0q-18 0 -18 12v2q0 7 11.5 14.5t23 18.5t11.5 29v507q0 20 -10 29.5t-21.5 9t-21.5 3t-10 13.5v3q0 12 19 19l110 47q20 8 31.5 3t11.5 -18q0 -7 -12.5 -25.5t-12.5 -44.5v-546q0 -18 12 -29t24.5 -18.5t12.5 -14.5v-2q0 -12 -18 -12h-143z" />
    <glyph glyph-name="two" unicode="2" horiz-adv-x="569" 
d="M526 152q8 0 12 -5t2 -14l-28 -112q-7 -21 -24 -21h-434q-19 0 -19 18v8q0 47 27.5 95t69 86.5t90 81t90 79.5t69 82.5t27.5 89.5q0 63 -38.5 101t-87.5 38q-48 0 -80.5 -26.5t-44.5 -58t-29 -58t-38 -26.5t-34 12t-13 33q0 56 66 110.5t168 54.5q98 0 159.5 -49
t61.5 -138q0 -58 -37 -112t-91.5 -96t-109.5 -82t-98 -86t-51 -92h319q26 0 42.5 21.5t27 43.5t19.5 22h7z" />
    <glyph glyph-name="three" unicode="3" horiz-adv-x="555" 
d="M277 411q105 -2 171 -58.5t66 -148.5t-68 -153t-185 -61q-108 0 -167 40.5t-59 83.5q0 22 11.5 34.5t30.5 12.5q16 0 29 -13.5t24 -32.5t26 -38t42.5 -32.5t65.5 -13.5q73 0 117 43t44 114q0 85 -50.5 132t-127.5 47h-11q-16 0 -21.5 12t4.5 24l187 230h-343
q-20 0 -20 20v39q0 18 19 18h425q20 0 20 -17v-9q0 -14 -15 -30z" />
    <glyph glyph-name="four" unicode="4" horiz-adv-x="562" 
d="M525 213q14 0 14 -13v-18q0 -13 -14 -13h-82v-97q0 -18 10.5 -28t21 -16.5t10.5 -13.5v-2q0 -12 -18 -12h-136q-19 0 -19 12v2q0 7 20 21t20 37v97h-319q-26 0 -26 22v3q0 19 9 33l317 455q18 28 44 28h49q17 0 17 -18v-479h82zM62 213h290l1 419z" />
    <glyph glyph-name="five" unicode="5" horiz-adv-x="560" 
d="M291 442q99 0 166 -60t67 -154q0 -104 -70 -171t-185 -67q-113 0 -174 40.5t-61 85.5q0 22 13 33t32 11q15 0 26.5 -13t22.5 -32t26.5 -37.5t45 -31.5t70.5 -13q72 0 118 49.5t46 129.5q0 85 -44.5 136t-122.5 51q-69 0 -148 -52q-16 -12 -34.5 -2.5t-16.5 29.5l44 323
q0 13 16 13h361q13 0 13 -14v-44q0 -14 -13 -14h-332l-44 -249q74 53 178 53z" />
    <glyph glyph-name="six" unicode="6" horiz-adv-x="591" 
d="M320 454q99 0 163 -65t64 -174q0 -97 -69 -161t-172 -64q-118 0 -190 97.5t-72 259.5q0 101 29 184t92.5 136t152.5 53q105 0 165 -54t60 -105q0 -23 -12.5 -34t-31.5 -11q-21 0 -35.5 16.5t-25 40.5t-24 48t-39.5 41t-63 17q-82 1 -129.5 -87t-49.5 -226
q30 41 79.5 64.5t107.5 23.5zM314 31q65 0 105 46t40 122q0 91 -45 152.5t-120 61.5q-62 0 -107.5 -42.5t-49.5 -97.5q13 -113 59.5 -177.5t117.5 -64.5z" />
    <glyph glyph-name="seven" unicode="7" horiz-adv-x="512" 
d="M486 710q19 0 19 -16v-9q0 -9 -11 -35l-267 -633q-6 -17 -25 -17h-52q-11 0 -15 8t-1 15l307 617h-322q-21 0 -35 -23t-25 -45.5t-23 -22.5h-9q-17 0 -14 20l21 118q5 23 26 23h426z" />
    <glyph glyph-name="eight" unicode="8" horiz-adv-x="599" 
d="M389 377q39 -17 65.5 -31.5t53 -37.5t39.5 -53.5t13 -69.5q0 -91 -72 -143t-184 -52q-124 0 -195 53t-71 128q0 126 183 195q-71 33 -110 72.5t-39 103.5q0 79 63.5 128t169.5 49q104 0 164 -50t60 -122q0 -112 -140 -170zM156 564q0 -61 43.5 -95.5t128.5 -67.5
q48 23 86 63t38 95q0 50 -42.5 86t-108.5 36q-64 0 -104.5 -33.5t-40.5 -83.5zM313 31q71 0 117 36.5t46 93.5q0 36 -13.5 63t-49 50.5t-56 33.5t-74.5 32q-11 5 -16 7q-60 -25 -103.5 -71.5t-43.5 -105.5q0 -62 53.5 -100.5t139.5 -38.5z" />
    <glyph glyph-name="nine" unicode="9" horiz-adv-x="588" 
d="M281 720q122 0 192.5 -97.5t70.5 -259.5q0 -170 -68 -271.5t-197 -101.5q-104 0 -164 52t-60 106q0 21 13 33t33 12q18 0 31 -16.5t23 -40.5t23.5 -48t40.5 -40.5t66 -16.5q88 0 129 88t41 235q-53 -92 -187 -92q-100 0 -163.5 64t-63.5 172q0 93 67.5 157.5t172.5 64.5z
M294 303q69 0 111.5 42.5t42.5 106.5q-14 102 -60 164.5t-119 62.5q-63 0 -102 -45.5t-39 -119.5q0 -86 46 -148.5t120 -62.5z" />
    <glyph glyph-name="colon" unicode=":" horiz-adv-x="235" 
d="M118 343q-28 0 -45.5 15.5t-17.5 43.5q0 29 17.5 45t45.5 16q27 0 45 -16t18 -45q0 -27 -18 -43t-45 -16zM118 -10q-28 0 -45.5 15.5t-17.5 43.5q0 29 17.5 45t45.5 16q27 0 45 -16t18 -45q0 -27 -18 -43t-45 -16z" />
    <glyph glyph-name="semicolon" unicode=";" horiz-adv-x="255" 
d="M130 343q-27 0 -45 15.5t-18 43.5q0 29 18 45t45 16q28 0 46 -16t18 -45q0 -28 -18 -43.5t-46 -15.5zM89 -135q-11 -7 -20 2t1 19q45 42 57 89q2 15 -10 15q-21 0 -35.5 17t-14.5 43q0 29 16.5 47t44.5 18q27 0 45.5 -20t18.5 -54q0 -105 -103 -176z" />
    <glyph glyph-name="less" unicode="&#x3c;" 
d="M448 132q15 -7 15 -16v-48q0 -18 -21 -9l-309 158q-18 9 -18 24v53q0 14 18 23l309 161q8 3 13 -1t5 -10v-48q0 -11 -14 -17l-276 -136z" />
    <glyph glyph-name="equal" unicode="=" 
d="M114 330q-15 0 -15 11v37q0 11 15 11h372q14 0 14 -11v-37q0 -11 -14 -11h-372zM114 151q-15 0 -15 10v38q0 10 15 10h372q14 0 14 -10v-38q0 -10 -14 -10h-372z" />
    <glyph glyph-name="greater" unicode="&#x3e;" 
d="M466 317q19 -9 19 -23v-54q0 -15 -19 -23l-309 -159q-10 -4 -15.5 -1t-5.5 10v48q0 10 15 17l283 134l-277 136q-15 4 -15 17v48q0 6 4.5 10t12.5 1z" />
    <glyph glyph-name="question" unicode="?" horiz-adv-x="511" 
d="M195 192q-4 39 8.5 73t34 57t48 49t49.5 48.5t38.5 55.5t15.5 70q0 61 -38.5 97.5t-89.5 36.5q-40 0 -67.5 -17.5t-41.5 -42.5t-24.5 -49.5t-23.5 -42t-31 -17.5q-21 0 -34 12t-13 33q0 54 66 109.5t165 55.5q97 0 159 -47t62 -137q0 -48 -22.5 -88t-54 -67.5
t-63.5 -53.5t-54.5 -60.5t-22.5 -74.5q0 -12 -15 -17t-31.5 0t-19.5 17zM229 -11q-27 0 -44.5 15t-17.5 42q0 28 17.5 43.5t44.5 15.5t44 -15.5t17 -43.5q0 -27 -17 -42t-44 -15z" />
    <glyph glyph-name="at" unicode="@" horiz-adv-x="904" 
d="M499 737q171 0 278 -99.5t107 -245.5q0 -110 -53 -187t-147 -77q-41 0 -74.5 20t-45.5 54q-56 -75 -158 -75q-72 0 -122 47.5t-50 122.5q0 107 68 176.5t175 69.5q89 0 134 -58l8 39q1 12 13 12h48q17 0 12 -15l-55 -264q-8 -39 10.5 -62.5t50.5 -23.5q56 0 91.5 64.5
t35.5 152.5q0 134 -94 220t-243 86q-163 0 -279 -115t-116 -274q0 -136 88.5 -226.5t235.5 -90.5q98 0 185 37q10 4 13.5 -1t0.5 -15l-5 -13q-4 -10 -19 -17q-74 -33 -184 -33q-167 0 -270.5 103t-103.5 255q0 85 33.5 163.5t93 138t147.5 95.5t191 36zM424 158
q48 0 89 35.5t52 85.5h1l21 93l4 18h-1q9 55 -20.5 88t-77.5 33q-70 0 -118.5 -66.5t-50.5 -156.5q-1 -60 27 -95t74 -35z" />
    <glyph glyph-name="A" unicode="A" horiz-adv-x="667" 
d="M27 0q-20 0 -20 12v2q0 8 19.5 21.5t27.5 34.5l222 567q6 16 -13.5 34.5t-19.5 24.5v2q0 12 17 12h128q16 0 16 -12v-2q0 -7 -11 -15.5t-19 -18.5t-3 -23l247 -569q8 -20 28 -33.5t20 -22.5v-2q0 -12 -20 -12h-135q-20 0 -20 12v2q0 6 7.5 12t15 10t12 13t-0.5 21
l-49 118h-322l-45 -118q-5 -12 -0.5 -21t12 -13t15 -10t7.5 -12v-2q0 -12 -21 -12h-95zM170 231h291l-152 367z" />
    <glyph glyph-name="B" unicode="B" horiz-adv-x="660" 
d="M423 381q98 -13 151 -62t53 -124q0 -92 -75.5 -143.5t-197.5 -51.5h-274q-20 0 -20 12v3q0 7 18 21t18 34v570q0 20 -18 34t-18 22v2q0 12 20 12h218q120 0 190 -49t70 -128q0 -57 -36 -97.5t-99 -54.5zM187 635l-1 -200q0 -17 11 -27.5t28 -10.5h104q66 0 106.5 34
t40.5 87q0 71 -48.5 111t-131.5 40l-79 -1q-30 0 -30 -33zM346 41q89 0 138.5 35t49.5 104q0 76 -60.5 126t-168.5 50h-118v-267q0 -22 11.5 -35t30.5 -13h117z" />
    <glyph glyph-name="C" unicode="C" horiz-adv-x="678" 
d="M370 -10q-133 0 -235 112t-102 260q0 157 93.5 257t238.5 100q110 0 191.5 -62.5t81.5 -122.5q0 -20 -11.5 -31.5t-32.5 -11.5q-20 0 -36.5 19.5t-32.5 46.5t-36.5 54.5t-58 47t-88.5 19.5q-90 0 -154.5 -75t-64.5 -191q0 -147 81.5 -244.5t190.5 -97.5q81 0 136.5 49
t83.5 117q9 16 25 12t12 -25q-18 -97 -91.5 -165t-190.5 -68z" />
    <glyph glyph-name="D" unicode="D" horiz-adv-x="741" 
d="M80 0q-21 0 -21 12v2q0 8 18.5 22.5t18.5 33.5v570q0 20 -18.5 34.5t-18.5 21.5v2q0 12 21 12h219q169 0 286.5 -97.5t117.5 -251.5q0 -165 -104.5 -263t-263.5 -98h-255zM232 41h97q120 0 200.5 77.5t80.5 210.5q0 151 -97.5 245.5t-229.5 94.5h-70q-28 0 -28 -32v-541
q0 -26 12.5 -40.5t34.5 -14.5z" />
    <glyph glyph-name="E" unicode="E" 
d="M80 0q-21 0 -21 12v2q0 7 18.5 21.5t18.5 35.5v568q0 16 -9 26.5t-18.5 17t-9.5 13.5v3q0 11 18 11h424q20 0 25 -22l24 -99q4 -20 -12 -20h-5q-10 0 -22.5 15.5t-23 34.5t-27 34.5t-34.5 15.5h-212q-28 0 -28 -34v-251h182q13 0 22 9t13.5 20.5t10 20.5t12.5 9h4
q13 0 13 -17v-123q0 -17 -13 -17h-4q-7 0 -12.5 9t-10 19.5t-13.5 19.5t-22 9h-182l-1 -259q0 -18 9.5 -30.5t27.5 -12.5h235q18 0 34 16t25.5 35.5t22 35.5t23.5 16h6q7 0 10.5 -6t1.5 -14l-24 -101q-5 -23 -26 -23h-450z" />
    <glyph glyph-name="F" unicode="F" horiz-adv-x="564" 
d="M80 0q-21 0 -21 12v2q0 7 18.5 21.5t18.5 34.5v570q0 13 -6 22t-12.5 13t-12.5 9.5t-6 11.5v2q0 12 18 12h421q20 0 25 -23l24 -99q5 -20 -13 -20h-4q-13 0 -29 25t-36 50.5t-43 25.5h-206q-29 0 -29 -32v-284h185q11 0 20 9t13.5 20.5t10.5 20.5t13 9h6q13 0 13 -17
v-123q0 -17 -13 -17h-6q-7 0 -13 8.5t-10.5 19.5t-13.5 19.5t-20 8.5h-185v-241q0 -15 9.5 -25t19.5 -17t10 -14v-2q0 -12 -20 -12h-126z" />
    <glyph glyph-name="G" unicode="G" horiz-adv-x="727" 
d="M689 339q20 0 20 -11v-3q0 -7 -14.5 -13.5t-29.5 -17t-15 -27.5v-261q0 -16 -14 -16t-19 9l-23 64q-37 -34 -94 -53.5t-118 -19.5q-140 0 -242 109t-102 260q0 156 100.5 258t235.5 102q117 0 196.5 -61t79.5 -123q0 -20 -11.5 -31.5t-31.5 -11.5t-37.5 19t-34.5 46.5
t-38.5 55t-59.5 46.5t-89 19q-87 0 -152.5 -77.5t-65.5 -188.5q0 -149 84 -252t196 -103q104 0 155 53v157q0 22 -33.5 36.5t-33.5 22.5v2q0 12 20 12z" />
    <glyph glyph-name="H" unicode="H" horiz-adv-x="767" 
d="M80 0q-20 0 -20 12v2q0 7 18 21.5t18 34.5v570q0 20 -18 34.5t-18 21.5v2q0 12 20 12h125q20 0 20 -12v-2q0 -7 -9.5 -14t-19 -17t-9.5 -25l-1 -256h393l-1 256q0 20 -18 34.5t-18 21.5v2q0 12 20 12h125q21 0 21 -12v-2q0 -7 -10 -14t-19.5 -17t-9.5 -25v-570
q0 -15 9.5 -25t19.5 -17t10 -14v-2q0 -12 -21 -12h-125q-20 0 -20 12v2q0 7 18 21.5t18 34.5l1 270h-392v-270q0 -15 9.5 -25t19 -17t9.5 -14v-2q0 -12 -20 -12h-125z" />
    <glyph glyph-name="I" unicode="I" horiz-adv-x="284" 
d="M60 12v2q0 7 18 21t18 34v571q0 20 -18 34.5t-18 21.5v2q0 12 20 12h125q20 0 20 -12v-2q0 -7 -9.5 -14t-19 -17t-9.5 -25v-571q0 -20 19 -34t19 -21v-2q0 -12 -20 -12h-125q-20 0 -20 12z" />
    <glyph glyph-name="J" unicode="J" horiz-adv-x="517" 
d="M340 640q0 20 -18.5 34.5t-18.5 21.5v2q0 12 21 12h126q19 0 19 -12v-2q0 -7 -9.5 -14t-19 -17t-9.5 -25l-1 -385q-1 -263 -212 -265q-54 0 -96 16t-65.5 42t-35 52.5t-11.5 50.5q0 21 11.5 33.5t31.5 12.5q22 0 35 -17t20 -41.5t17.5 -49t35.5 -41.5t65 -17
q50 0 82 47.5t32 134.5v427z" />
    <glyph glyph-name="K" unicode="K" horiz-adv-x="688" 
d="M642 83q2 -23 25 -43t23 -26v-2q0 -12 -20 -12h-138q-21 0 -21 12v2q0 6 19 21t18 36q0 85 -55.5 185.5t-144.5 155.5l-161 -159v-182q0 -20 19.5 -35t19.5 -22v-2q0 -12 -21 -12h-125q-20 0 -20 12v2q0 7 18 22t18 35v569q0 20 -18 34t-18 21v3q0 12 20 12h125
q21 0 21 -12v-3q0 -7 -19.5 -21t-19.5 -34v-326l326 323q14 18 10.5 25t-14.5 17t-11 16v3q0 12 20 12h104q20 0 20 -12v-3q0 -8 -9 -15t-27 -18.5t-31 -24.5l-168 -166q105 -67 168 -179.5t67 -208.5z" />
    <glyph glyph-name="L" unicode="L" horiz-adv-x="575" 
d="M80 0q-20 0 -20 12v2q0 8 18 22t18 34v570q0 21 -18 34.5t-18 21.5v2q0 12 20 12h126q20 0 20 -12v-2q0 -8 -19.5 -21.5t-19.5 -34.5v-560q0 -39 32 -39h222q20 0 36 17t25 38t21 38t23 17h8q16 0 11 -18l-25 -110q-5 -23 -25 -23h-435z" />
    <glyph glyph-name="M" unicode="M" horiz-adv-x="896" 
d="M836 73q4 -20 22 -35.5t18 -23.5v-2q0 -12 -20 -12h-123q-20 0 -20 12v2q0 7 18.5 23t14.5 36l-89 516l-200 -567q-9 -21 -26 -21q-20 0 -27 20l-205 575l-85 -523q-3 -20 18 -36t21 -23v-2q0 -12 -21 -12h-90q-20 0 -20 12v2q0 8 18 24t21 35l97 565q3 20 -14.5 35.5
t-17.5 21.5v2q0 13 16 13h133q16 0 16 -13v-2q0 -4 -16.5 -21t-9.5 -36l178 -516l182 520q6 18 -10.5 33t-16.5 20v2q0 13 16 13h136q15 0 15 -11v-3q0 -6 -6 -12.5t-13 -11.5t-11.5 -16t-1.5 -26z" />
    <glyph glyph-name="N" unicode="N" horiz-adv-x="750" 
d="M676 710q20 0 20 -11v-3q0 -7 -20 -21.5t-20 -34.5v-613q0 -27 -25 -27h-25q-17 0 -34 26l-425 580v-533q0 -19 21.5 -35t21.5 -24v-2q0 -12 -21 -12h-91q-20 0 -20 12v2q0 8 19 24t19 35v566q0 19 -19 34t-19 23v2q0 12 20 12h149q16 0 16 -11v-3q0 -5 -11 -13.5
t-15.5 -16.5t6.5 -27l382 -524v525q0 20 -20.5 34.5t-20.5 21.5v3q0 11 21 11h91z" />
    <glyph glyph-name="O" unicode="O" horiz-adv-x="772" 
d="M394 -10q-154 0 -255 109t-101 258q0 157 98 260t251 103q151 0 249 -108t98 -261q0 -149 -98.5 -255t-241.5 -106zM416 33q98 0 163 77t65 181q0 162 -81 274t-207 112q-100 0 -164 -74t-64 -185q0 -159 81.5 -272t206.5 -113z" />
    <glyph glyph-name="P" unicode="P" horiz-adv-x="605" 
d="M80 0q-21 0 -21 13v2q0 6 18.5 20.5t18.5 34.5v570q0 18 -18.5 33t-18.5 22v3q0 12 21 12h186q65 0 120 -13t99.5 -40t70 -72.5t25.5 -105.5q0 -114 -77 -176t-215 -62h-103v-171q0 -20 19.5 -34.5t19.5 -20.5v-2q0 -13 -20 -13h-125zM222 282h67q92 0 145.5 46.5
t53.5 128.5q0 103 -64.5 157.5t-157.5 54.5h-54q-26 0 -26 -32v-319q0 -36 36 -36z" />
    <glyph glyph-name="Q" unicode="Q" horiz-adv-x="771" 
d="M797 -54q12 4 18 -5t-3 -22q-21 -28 -66 -51.5t-103 -23.5q-179 0 -294 149q-137 17 -224 122t-87 242q0 157 98 260t251 103q151 0 249 -108t98 -261q0 -143 -91.5 -247.5t-227.5 -112.5q90 -83 231 -83q24 0 50.5 5t40 9.5t36.5 14t24 9.5zM128 418q0 -159 81.5 -272
t206.5 -113q98 0 163 77t65 181q0 162 -81 274t-207 112q-100 0 -164 -74t-64 -185z" />
    <glyph glyph-name="R" unicode="R" horiz-adv-x="654" 
d="M592 66q1 -18 21 -31t20 -21v-2q0 -12 -20 -12h-124q-20 0 -20 12v2q0 8 16 19.5t15 29.5q-2 72 -38 132t-100 86q-23 -4 -55 -4h-120v-207q0 -15 9.5 -25t19.5 -17t10 -14v-2q0 -12 -20 -12h-126q-20 0 -20 12v2q0 7 18 21.5t18 34.5v570q0 20 -18 34.5t-18 21.5v2
q0 12 20 12h205q135 0 218 -55.5t84 -164.5q1 -60 -36.5 -110t-104.5 -78q65 -34 103.5 -98.5t42.5 -137.5zM298 317q88 0 141.5 43t53.5 117q0 94 -61 143t-152 49h-67q-26 0 -26 -34v-269q0 -49 42 -49h69z" />
    <glyph glyph-name="S" unicode="S" horiz-adv-x="606" 
d="M315 -10q-132 0 -207 59.5t-75 116.5q0 18 10 29t28 11q19 -1 33.5 -19.5t28 -44.5t32.5 -51.5t58.5 -43.5t95.5 -18q71 0 115.5 37.5t44.5 96.5q0 50 -23.5 82t-61 46.5t-83 23.5t-91.5 20t-83.5 29.5t-61 58.5t-23.5 101q0 86 66.5 140.5t182.5 54.5q118 0 188.5 -52
t70.5 -111q0 -40 -41 -40q-20 0 -33.5 17t-24.5 41t-27 48t-50.5 41t-85.5 17q-73 0 -114 -38t-41 -97q0 -47 23.5 -77t61.5 -44t83.5 -23.5t91 -21.5t83.5 -31.5t61.5 -61t23.5 -102.5q0 -88 -74 -141t-182 -53z" />
    <glyph glyph-name="T" unicode="T" horiz-adv-x="608" 
d="M238 0q-20 0 -20 12v2q0 7 18.5 21.5t18.5 34.5v597h-136q-17 0 -30.5 -17t-20.5 -37t-16.5 -37t-18.5 -17h-9q-16 0 -13 20l16 109q3 22 25 22h497q21 0 26 -22l22 -110q4 -19 -12 -19h-10q-9 0 -19.5 17t-18.5 37t-22.5 37t-31.5 17h-138v-597q0 -15 9.5 -25t19.5 -17
t10 -14v-2q0 -12 -21 -12h-125z" />
    <glyph glyph-name="U" unicode="U" horiz-adv-x="743" 
d="M644 86q0 -24 9 -36.5t20.5 -13t20.5 -4.5t9 -14q0 -24 -69 -24q-38 0 -54.5 18t-15.5 85l-3 13q-60 -120 -224 -120q-115 0 -183.5 75t-68.5 204v354q0 16 -9 27.5t-18 18.5t-9 13v3q0 12 15 15l86 17q29 6 29 -12l-2 -446q0 -106 48.5 -168t131.5 -62q92 0 145.5 57.5
t53.5 147.5v389q0 16 -10 27.5t-20.5 18.5t-10.5 13v3q0 11 17 15l85 17q27 5 27 -12v-619z" />
    <glyph glyph-name="V" unicode="V" horiz-adv-x="700" 
d="M679 710q19 0 19 -11v-3q0 -8 -19 -21t-28 -35l-258 -614q-12 -26 -36 -26q-22 0 -34 25l-280 614q-10 21 -27.5 34.5t-17.5 22.5v2q0 12 21 12h143q21 0 21 -12v-2q0 -6 -8 -12t-16 -10.5t-13.5 -13.5t0.5 -21l232 -540l218 541q6 15 -4 25t-23.5 17t-13.5 14v3
q0 11 20 11h104z" />
    <glyph glyph-name="W" unicode="W" horiz-adv-x="964" 
d="M942 710q18 0 18 -11v-3q0 -10 -19 -22.5t-27 -33.5l-230 -614q-10 -26 -37 -26q-22 0 -34 25l-113 287l-123 -286q-12 -26 -41 -26q-25 0 -36 25l-254 614q-9 21 -29 33.5t-20 22.5v3q0 12 18 12h139q18 0 18 -12v-3q0 -8 -11.5 -14t-19.5 -15.5t-1 -26.5l217 -538
l117 276l-103 263q-9 23 -27 35.5t-18 20.5v3q0 11 16 11h81q17 0 23 -17l76 -204l87 205q8 16 24 16h46q19 0 19 -11v-3q0 -9 -10 -13.5t-24 -13.5t-21 -25l-96 -223l115 -309l197 528q6 15 -3 24.5t-21 16t-12 14.5v2q0 13 20 13h99z" />
    <glyph glyph-name="X" unicode="X" horiz-adv-x="663" 
d="M606 70q10 -14 25 -24.5t23 -17t8 -14.5v-2q0 -12 -20 -12h-145q-19 0 -19 12v2q0 7 11.5 16t16.5 16t-4 24l-191 255l-189 -255q-9 -17 -5 -24t13.5 -16t9.5 -16v-2q0 -12 -20 -12h-104q-20 0 -20 12v2q0 8 10.5 14.5t27 17t26.5 24.5l224 291l-210 279q-11 15 -26 25.5
t-23.5 16.5t-8.5 14v2q0 12 20 12h142q20 0 20 -12v-2q0 -7 -11 -16t-16 -16t4 -24l181 -239l174 239q9 17 3.5 24t-17 16t-11.5 16v2q0 12 19 12h109q20 0 20 -12v-2q0 -8 -10.5 -14t-27 -16.5t-27.5 -25.5l-205 -275z" />
    <glyph glyph-name="Y" unicode="Y" horiz-adv-x="660" 
d="M631 710q20 0 20 -11v-3q0 -9 -20.5 -22t-32.5 -34l-216 -353v-217q0 -15 9.5 -25t19 -17t9.5 -14v-2q0 -12 -19 -12h-126q-20 0 -20 12v2q0 7 18 21.5t18 34.5v211l-232 359q-11 18 -33 32.5t-22 23.5v2q0 12 20 12h146q20 0 20 -12v-2q0 -7 -12.5 -15.5t-19 -15.5
t0.5 -25l195 -321l195 321q8 19 0.5 26t-21 15t-13.5 15v2q0 12 18 12h98z" />
    <glyph glyph-name="Z" unicode="Z" horiz-adv-x="604" 
d="M577 148q21 0 16 -20l-28 -107q-7 -21 -24 -21h-499q-8 0 -14 5.5t-6 12.5v6q0 8 13 27l424 618h-314q-15 0 -29.5 -16t-23.5 -35.5t-21 -35.5t-24 -16h-4q-20 0 -15 24l27 98q5 22 25 22h466q8 0 13.5 -5.5t5.5 -12.5v-9q0 -7 -15 -29l-422 -613h338q19 0 36 16.5
t27.5 37t22.5 37t23 16.5h2z" />
    <glyph glyph-name="bracketleft" unicode="[" horiz-adv-x="289" 
d="M100 -105q-17 0 -17 16v852q0 16 17 16h161q13 0 13 -13v-19q0 -12 -13 -12h-100v-796h100q13 0 13 -12v-19q0 -13 -13 -13h-161z" />
    <glyph glyph-name="backslash" unicode="\" horiz-adv-x="359" 
d="M292 -102q-15 0 -18 10l-245 872q-5 17 9 17h28q14 0 17 -10l247 -873q5 -16 -12 -16h-26z" />
    <glyph glyph-name="bracketright" unicode="]" horiz-adv-x="289" 
d="M28 -105q-13 0 -13 13v19q0 12 13 12h100v796h-100q-13 0 -13 12v19q0 13 13 13h161q17 0 17 -16v-852q0 -16 -17 -16h-161z" />
    <glyph glyph-name="asciicircum" unicode="^" 
d="M452 614q8 -11 6 -22t-10.5 -13t-19.5 6l-133 124l-124 -124q-7 -7 -16.5 -4.5t-12 12t5.5 21.5l110 146q9 14 30 14h18q20 0 31 -13z" />
    <glyph glyph-name="underscore" unicode="_" horiz-adv-x="485" 
d="M45 -49q-13 0 -13 14v21q0 14 13 14h395q13 0 13 -14v-21q0 -14 -13 -14h-395z" />
    <glyph glyph-name="grave" unicode="`" 
d="M333 554l-195 86q-25 8 -13 32l16 32q13 24 36 7l176 -126q13 -11 5 -24t-25 -7z" />
    <glyph glyph-name="a" unicode="a" horiz-adv-x="578" 
d="M536 448q0 -6 -9.5 -13t-19 -18.5t-9.5 -28.5v-318q0 -20 18.5 -35t18.5 -21v-3q0 -11 -14 -11h-85q-16 0 -16 16v56q-24 -40 -65.5 -61t-89.5 -21q-95 0 -163 70t-68 181q0 109 67 179t168 70q96 0 152 -75v54q0 12 8.5 17t22.5 0l69 -18q15 -4 15 -17v-3zM286 23
q48 0 87.5 38.5t39.5 105.5v151q0 50 -43.5 95t-101.5 45q-65 0 -106 -51.5t-42 -135.5q-2 -104 45 -175.5t121 -72.5z" />
    <glyph glyph-name="b" unicode="b" horiz-adv-x="569" 
d="M306 490q95 0 162.5 -67.5t67.5 -175.5q0 -110 -66.5 -183.5t-162.5 -73.5q-99 0 -154 76l1 -51q0 -16 -17 -16l-87 1q-15 0 -15 11v3q0 7 18.5 22t18.5 35v560q0 18 -10 29t-20 17.5t-10 13.5v3q0 9 17 16l79 38q14 7 22.5 3t8.5 -17v-309q52 65 147 65zM294 22
q70 0 111.5 54.5t41.5 146.5q0 104 -45.5 169.5t-118.5 65.5q-50 0 -87 -37.5t-37 -88.5v-142l-1 -14h1q0 -60 41.5 -107t93.5 -47z" />
    <glyph glyph-name="c" unicode="c" horiz-adv-x="502" 
d="M279 -10q-105 0 -177.5 72.5t-72.5 180.5q0 110 70.5 178t175.5 69q78 1 136.5 -39.5t58.5 -84.5q0 -36 -40 -35q-19 1 -35.5 20.5t-29 43t-40 43.5t-66.5 20q-62 0 -102 -50.5t-40 -125.5q0 -104 53 -166.5t137 -62.5q49 0 84.5 26.5t54.5 67.5q6 12 19 9t10 -17
q-12 -61 -63.5 -105t-132.5 -44z" />
    <glyph glyph-name="d" unicode="d" horiz-adv-x="568" 
d="M498 70q0 -20 18.5 -35t18.5 -21v-3q0 -11 -15 -11h-84q-15 0 -17 16l-2 50q-25 -37 -65.5 -56.5t-86.5 -19.5q-95 0 -163 70t-68 181q0 109 67 179t167 70q88 0 145 -65v218q0 18 -10.5 29t-21 17t-10.5 13v2q0 10 15 17l81 27q31 12 31 -15v-663zM286 23
q48 0 87.5 38.5t39.5 105.5h1l-1 51v100q0 51 -43.5 95.5t-102.5 44.5q-65 0 -105.5 -51.5t-41.5 -135.5q-2 -104 45 -175.5t121 -72.5z" />
    <glyph glyph-name="e" unicode="e" horiz-adv-x="497" 
d="M442 141q7 11 19 8.5t11 -16.5q-12 -54 -63 -98.5t-135 -44.5q-105 0 -172.5 70.5t-67.5 183.5q0 108 67 176.5t172 69.5q77 1 126.5 -34.5t49.5 -98.5q0 -51 -43 -90.5t-114 -53.5q-70 -13 -169 -5q17 -71 63 -112.5t111 -41.5q54 0 91 24t54 63zM258 456
q-63 0 -103 -51t-40 -125q0 -12 2 -36q98 -7 158 6q90 19 89 107q-1 44 -30.5 71.5t-75.5 27.5z" />
    <glyph glyph-name="f" unicode="f" horiz-adv-x="341" 
d="M266 737q53 0 92.5 -29t39.5 -69q0 -14 -10 -24.5t-27 -10.5q-26 0 -37.5 15.5t-13 34.5t-15 35t-43.5 16q-49 1 -64.5 -60t3.5 -138v-27h139q6 0 10 -4.5t4 -9.5v-13q0 -13 -14 -13h-139v-369q0 -15 11 -25t22.5 -17t11.5 -14v-3q0 -12 -15 -12h-141q-15 0 -15 12v3
q0 7 9.5 14t19 17t9.5 25v369h-83q-15 0 -15 13v13q0 14 15 14h83v87q0 76 43 123t120 47z" />
    <glyph glyph-name="g" unicode="g" horiz-adv-x="571" 
d="M523 468q15 -4 15 -17v-3q0 -6 -9.5 -13t-19 -18.5t-9.5 -28.5v-339q0 -122 -60 -186.5t-157 -64.5q-96 0 -155.5 46.5t-59.5 96.5q0 15 10.5 26t29.5 11q18 0 32.5 -23t26 -50.5t43 -51t80.5 -23.5q57 0 91 49.5t34 149.5v43q-25 -34 -65 -53t-84 -19q-95 0 -163.5 68.5
t-68.5 172.5q0 109 67 179t168 70q98 0 155 -77l-1 56q0 12 8.5 17t22.5 0zM287 33q47 0 87.5 38.5t40.5 105.5v141q0 50 -44 95t-102 45q-65 0 -106.5 -51.5t-42.5 -135.5q-2 -98 45.5 -168t121.5 -70z" />
    <glyph glyph-name="h" unicode="h" horiz-adv-x="568" 
d="M507 72q2 -20 19 -34t17 -22v-4q0 -12 -20 -12h-120q-20 0 -20 12v4q0 7 9.5 14t18.5 16.5t8 24.5l-10 204q-4 86 -37 131t-86 45q-55 0 -90 -39t-35 -99v-243q0 -19 20 -32.5t20 -21.5v-3q0 -13 -21 -13h-125q-19 0 -19 13v3q0 8 18.5 21.5t18.5 32.5v565
q0 17 -9.5 27.5t-19 17t-9.5 12.5v3q0 11 14 17l82 36q13 6 21 2.5t8 -15.5l-2 -324q51 79 149 79q78 0 130.5 -54.5t58.5 -162.5z" />
    <glyph glyph-name="i" unicode="i" horiz-adv-x="243" 
d="M120 575q-31 0 -49 17t-18 45t18.5 45.5t48.5 17.5q29 0 47 -17.5t18 -45.5t-18 -45t-47 -17zM62 0q-19 0 -19 13v4q0 7 9 13.5t18 16t9 24.5v298q0 23 -18 40t-18 22v2q0 7 15 15l77 38q16 6 23.5 2t7.5 -16v-401q0 -12 6 -20.5t14 -12.5t14 -9.5t6 -11.5v-4
q0 -13 -21 -13h-123z" />
    <glyph glyph-name="j" unicode="j" horiz-adv-x="240" 
d="M123 575q-31 0 -49 17t-18 45t18.5 45.5t48.5 17.5q29 0 47 -17.5t18 -45.5t-18 -45t-47 -17zM53 -184q-49 0 -80 22t-31 58q0 17 11 28t29 11q19 0 30 -13t14 -29t13 -29t29 -13q21 0 33.5 15t12.5 39q0 25 -14 62t-14 59v343q0 23 -18 39t-18 22v3q0 7 14 15l80 38
q15 7 23.5 2t8.5 -16v-469q0 -58 -17 -111q-25 -76 -106 -76z" />
    <glyph glyph-name="k" unicode="k" horiz-adv-x="526" 
d="M489 58q6 -8 25.5 -19t19.5 -23v-3q0 -13 -15 -13h-129q-15 0 -15 14v3q0 8 13.5 18.5t5.5 22.5l-128 184q-50 -15 -105 -16v-153q0 -19 20 -33t20 -23v-4q0 -13 -21 -13h-124q-21 0 -21 13v4q0 9 18.5 23t18.5 33v556q0 21 -19.5 39t-19.5 25v1q0 10 15 16l84 39
q14 6 21.5 1t7.5 -16v-466q69 2 113 25.5t61 55.5t26.5 64t21.5 54t33 22q41 0 41 -40q0 -37 -29.5 -89t-90.5 -88z" />
    <glyph glyph-name="l" unicode="l" horiz-adv-x="236" 
d="M57 0q-19 0 -19 13v3q0 8 17.5 21.5t17.5 32.5v562q0 17 -8.5 28.5t-17.5 18.5t-9 13v2q0 8 14 16l78 38q15 6 23 1.5t8 -15.5v-664q0 -19 19.5 -32.5t19.5 -21.5v-3q0 -13 -20 -13h-123z" />
    <glyph glyph-name="m" unicode="m" horiz-adv-x="900" 
d="M840 71q1 -20 19 -34.5t18 -21.5v-4q0 -12 -20 -12h-120q-20 0 -20 12v4q0 7 18 21t17 34l-10 195q-5 98 -36.5 142t-88.5 44q-48 0 -82.5 -38t-36.5 -94q4 -20 4 -49v-200q0 -20 17.5 -34t17.5 -21v-4q0 -12 -19 -12h-118q-21 0 -21 12v4q0 7 17.5 21t17.5 34v205
q0 81 -35.5 128.5t-88.5 47.5q-52 0 -87 -39t-37 -96l1 -246q0 -20 19.5 -34t19.5 -21v-4q0 -12 -20 -12h-125q-20 0 -20 12v4q0 7 19 21t19 34v303q0 17 -10 28t-20 17.5t-10 13.5v3q0 9 15 15l78 36q14 7 21.5 2t7.5 -17v-71q22 41 61.5 65.5t86.5 24.5q56 0 101.5 -28.5
t69.5 -81.5q19 51 62 80.5t98 29.5q81 0 131.5 -54.5t57.5 -172.5z" />
    <glyph glyph-name="n" unicode="n" horiz-adv-x="574" 
d="M514 72q1 -16 10 -26t17.5 -16.5t8.5 -13.5v-4q0 -13 -21 -13h-119q-21 0 -21 13v4q0 7 18.5 21t17.5 34l-10 200q-4 89 -36.5 134.5t-86.5 45.5q-55 0 -90 -39t-35 -99v-243q0 -12 6.5 -20.5t13.5 -12.5t13.5 -9.5t6.5 -11.5v-4q0 -13 -21 -13h-125q-20 0 -20 13v4
q0 8 19.5 21t19.5 33v303q0 19 -10.5 29.5t-21 16.5t-10.5 13v3q0 9 16 15l75 36q14 7 21 2t7 -17v-73q22 42 63.5 67t92.5 25q78 0 130.5 -55t59.5 -166z" />
    <glyph glyph-name="o" unicode="o" horiz-adv-x="565" 
d="M294 -10q-116 0 -188.5 75.5t-72.5 181.5q0 104 70 173.5t173 69.5q111 0 182.5 -73.5t71.5 -180.5q0 -105 -66 -175.5t-170 -70.5zM306 23q59 0 97.5 50t38.5 133q0 106 -50 178.5t-126 72.5q-64 0 -104 -49.5t-40 -132.5q0 -100 52 -176t132 -76z" />
    <glyph glyph-name="p" unicode="p" horiz-adv-x="572" 
d="M307 490q95 0 162.5 -67.5t67.5 -175.5q0 -110 -66.5 -183.5t-162.5 -73.5q-92 0 -148 69v-215q0 -16 10 -26t19.5 -16.5t9.5 -13.5v-3q0 -13 -20 -13h-123q-21 0 -21 13v3q0 6 6 11.5t12.5 9.5t12.5 13t6 22v530q0 19 -20 33.5t-20 22.5v3q0 12 16 18l72 35
q28 13 28 -14l-1 -66q23 39 65.5 61.5t94.5 22.5zM296 22q69 0 110.5 54.5t41.5 146.5q0 104 -45 169.5t-118 65.5q-46 0 -82.5 -32.5t-42.5 -78.5v-171q0 -60 41.5 -107t94.5 -47z" />
    <glyph glyph-name="q" unicode="q" horiz-adv-x="570" 
d="M537 448q0 -6 -9.5 -13t-19 -18.5t-9.5 -28.5v-545q0 -15 9.5 -25t19 -17t9.5 -14v-3q0 -12 -21 -12h-121q-20 0 -20 12v3q0 7 9.5 14t19.5 17t10 25v219q-51 -72 -149 -72q-95 0 -163 70t-68 181q0 109 67 179t168 70q97 0 153 -75v54q0 12 9 17t23 0l68 -18
q15 -4 15 -17v-3zM286 23q48 0 88 38.5t40 105.5v154q-1 50 -44.5 93.5t-101.5 43.5q-65 0 -106 -51.5t-42 -135.5q-2 -104 45 -175.5t121 -72.5z" />
    <glyph glyph-name="r" unicode="r" horiz-adv-x="381" 
d="M286 490q43 0 67.5 -22t24.5 -55q0 -47 -40 -47q-17 0 -27 11t-13.5 24t-15.5 24t-33 11q-40 0 -62.5 -39.5t-22.5 -98.5v-228q0 -20 21 -33.5t21 -20.5v-4q0 -12 -20 -12h-124q-20 0 -20 12v4q0 7 18.5 20.5t18.5 33.5v304q0 21 -20 36t-20 22v2q0 10 15 18l76 34
q26 12 26 -14v-80q34 98 130 98z" />
    <glyph glyph-name="s" unicode="s" horiz-adv-x="467" 
d="M234 -9q-92 0 -147.5 37t-55.5 77q0 37 39 37q17 0 27.5 -12.5t18.5 -30.5t19.5 -36t36.5 -30.5t62 -12.5q50 0 82 23.5t32 64.5q0 40 -31.5 62t-76.5 31.5t-90 21.5t-76.5 44t-31.5 86q0 58 53 97.5t135 39.5q87 0 141 -37t54 -81q0 -15 -10.5 -25t-25.5 -10
q-18 0 -31 19t-21.5 42t-34.5 42t-68 19q-44 0 -73.5 -25t-29.5 -62q0 -39 31.5 -60.5t76.5 -31.5t89.5 -22t76 -44.5t31.5 -87.5q0 -58 -55.5 -96.5t-146.5 -38.5z" />
    <glyph glyph-name="t" unicode="t" horiz-adv-x="356" 
d="M217 -10q-60 0 -94.5 38.5t-34.5 112.5v299h-66q-15 0 -15 15v10q0 15 15 15h36q68 0 76 95q2 20 17 20h10q16 0 16 -20l1 -95h138q6 0 10.5 -4.5t4.5 -10.5v-10q0 -15 -15 -15h-138v-300q0 -40 17 -62t46 -22q32 0 51.5 16.5t22.5 43.5q5 12 17.5 10.5t12.5 -14.5
q0 -49 -35.5 -85.5t-92.5 -36.5z" />
    <glyph glyph-name="u" unicode="u" horiz-adv-x="565" 
d="M486 86q0 -25 9 -38t19 -14.5t19 -5.5t9 -13q0 -21 -62 -21q-76 0 -73 74l-2 6q-46 -84 -154 -84q-84 0 -134.5 59.5t-50.5 168.5v177q0 22 -18.5 37t-18.5 21v3q0 12 15 15l84 15q27 5 27 -12l-1 -263q0 -87 30.5 -134.5t87.5 -47.5q54 0 90.5 42t36.5 110v214
q0 21 -19.5 36t-19.5 22v3q0 12 15 15l85 15q26 5 26 -12v-388z" />
    <glyph glyph-name="v" unicode="v" horiz-adv-x="523" 
d="M214 -10q-65 0 -105.5 42.5t-40.5 131.5v231q0 22 -18 37t-18 21v3q0 12 14 15l84 15q28 5 28 -12l-2 -332q0 -112 75 -113q77 0 138.5 74.5t61.5 189.5q0 35 -11.5 60.5t-25.5 36.5t-25.5 26.5t-11.5 33.5t11.5 29t32.5 11q34 0 58.5 -36.5t24.5 -124.5
q0 -154 -79.5 -246.5t-190.5 -92.5z" />
    <glyph glyph-name="w" unicode="w" horiz-adv-x="796" 
d="M671 490q37 0 61 -41t24 -120q0 -154 -73.5 -246.5t-168.5 -92.5q-103 0 -130 103q-58 -103 -172 -103q-64 0 -104 42.5t-40 131.5v231q0 22 -18 37t-18 21v3q0 12 14 15l84 15q28 5 28 -15l-2 -337q0 -105 70 -105q66 0 108 63t42 148v155q0 22 -18.5 37t-18.5 21v3
q0 12 15 15l79 17q27 6 27 -17l-1 -336q-2 -106 71 -106q61 0 117 74.5t56 182.5q0 33 -11.5 58.5t-26 38t-26 29.5t-11.5 36t11.5 30.5t31.5 11.5z" />
    <glyph glyph-name="x" unicode="x" horiz-adv-x="502" 
d="M437 74q10 -13 25 -24.5t22.5 -19t7.5 -15.5v-3q0 -12 -15 -12h-140q-15 0 -15 13v2q0 6 11 14.5t14.5 16t-10.5 29.5l-103 130l-111 -132q-12 -14 -12.5 -24.5t6.5 -14.5t14 -9t7 -10v-2q0 -13 -16 -13h-108q-15 0 -15 12v3q0 7 8.5 13t26.5 18.5t33 29.5l140 163
l-130 165q-14 18 -29.5 29.5t-22.5 17t-7 14.5v3q0 12 14 12h137q15 0 15 -12v-3q0 -7 -8.5 -17.5t-10.5 -18t10 -26.5l100 -125l110 125q13 20 10 28t-14 18t-11 16v3q0 12 15 12h89q15 0 15 -12v-3q0 -8 -5.5 -14.5t-20 -19t-27.5 -27.5l-136 -158z" />
    <glyph glyph-name="y" unicode="y" horiz-adv-x="545" 
d="M457 488q27 4 27 -14v-431q0 -119 -62 -182t-165 -63q-89 0 -145.5 46.5t-56.5 99.5q0 16 11 26.5t29 10.5q16 0 27 -15.5t19.5 -37.5t21.5 -44t40.5 -38t67.5 -16q125 0 125 203v41q-47 -74 -147 -74q-81 0 -132 60t-51 158v177q0 22 -18.5 37t-18.5 21v3q0 12 15 15
l84 15q27 5 27 -12l-1 -263q0 -80 30.5 -126t84.5 -46t90.5 41.5t36.5 106.5v208q0 21 -19 36t-19 22v3q0 12 14 15z" />
    <glyph glyph-name="z" unicode="z" horiz-adv-x="476" 
d="M451 131q19 0 12 -21l-27 -89q-7 -21 -24 -21h-367q-8 0 -14 5.5t-6 12.5v6q0 6 13 27l297 399h-185q-17 0 -32.5 -15t-24.5 -33.5t-20.5 -33.5t-22.5 -15h-4q-20 0 -12 24l25 81q8 22 26 22h328q7 0 12.5 -5t5.5 -13v-9q0 -8 -16 -29l-296 -394h217q20 0 37 16t27 34.5
t22.5 34.5t23.5 16h5z" />
    <glyph glyph-name="braceleft" unicode="{" horiz-adv-x="294" 
d="M261 -55q12 0 17 -10t0.5 -20t-16.5 -10q-74 0 -119 40.5t-45 122.5v124q0 60 -16.5 88.5t-40.5 28.5q-14 0 -20 12.5t-0.5 25t20.5 12.5q24 0 40.5 27t16.5 82v146q0 79 46 119.5t121 39.5q11 0 16.5 -9.5t1 -19.5t-17.5 -10q-39 0 -61.5 -30t-23.5 -87l-1 -145
q0 -116 -75 -139q75 -21 74 -146v-123q-1 -119 83 -119z" />
    <glyph glyph-name="bar" unicode="|" horiz-adv-x="227" 
d="M93 -90q-10 0 -10 15v771q0 13 11 15l38 -1q12 0 12 -14v-771q0 -7 -3 -11.5t-8 -3.5h-40z" />
    <glyph glyph-name="braceright" unicode="}" horiz-adv-x="295" 
d="M255 359q14 0 19.5 -12.5t-0.5 -25t-19 -12.5q-24 0 -41 -28.5t-17 -88.5v-124q0 -82 -45 -122.5t-119 -40.5q-11 0 -15.5 10t0.5 20t17 10q83 0 83 119l-1 123q-1 73 23 106.5t53 39.5q-29 7 -53 39.5t-24 99.5v145q-1 57 -23.5 87t-61.5 30q-13 0 -17.5 10t1 19.5
t16.5 9.5q74 1 120 -39.5t46 -119.5v-146q1 -55 17.5 -82t40.5 -27z" />
    <glyph glyph-name="asciitilde" unicode="~" 
d="M192 375q45 0 112 -34t101 -34q25 0 46 11.5t30 33.5q8 13 19 13h17q14 0 11 -16q-9 -50 -44.5 -79t-81.5 -29q-54 0 -117 34t-93 34q-46 0 -70 -47q-8 -15 -25 -15h-11q-13 0 -10 17q8 44 37.5 77.5t78.5 33.5z" />
    <glyph glyph-name="exclamdown" unicode="&#xa1;" horiz-adv-x="222" 
d="M111 337q-27 0 -45 15.5t-18 43.5q0 29 18 45t45 16t45 -16t18 -45q0 -28 -18 -43.5t-45 -15.5zM161 -175q0 -24 -24 -33.5t-48.5 1t-24.5 33.5q3 228 26 439q2 13 20 13t20 -13q25 -183 31 -440z" />
    <glyph glyph-name="cent" unicode="&#xa2;" horiz-adv-x="526" 
d="M461 268q6 11 21 8t12 -17q-12 -60 -59 -110t-132 -55v-78q0 -17 -12 -17h-15q-13 0 -13 17v79q-93 10 -158.5 86t-65.5 178q0 111 64 182.5t160 79.5v80q0 15 12 15h17q11 0 11 -15v-80q71 -5 124 -43.5t53 -79.5q0 -16 -11 -27t-29 -11q-19 0 -34 16t-24.5 36t-30 41
t-48.5 28v-419q5 -1 15 -1q95 0 143 107zM129 403q0 -88 37 -150t97 -83v415q-54 -2 -94 -55t-40 -127z" />
    <glyph glyph-name="sterling" unicode="&#xa3;" horiz-adv-x="655" 
d="M589 143q7 13 22 10t12 -20q-16 -64 -66.5 -105t-138.5 -41q-71 0 -168 60q-45 -57 -113 -57q-41 0 -63.5 21t-22.5 54q0 32 25 52.5t66 20.5q36 0 78 -15q4 19 4 46q0 62 -37 136h-133q-15 0 -15 10v25q0 9 15 9h110q-44 84 -44 155q0 99 66 159t184 60q86 0 151.5 -39
t65.5 -86q0 -18 -11.5 -31t-31.5 -13q-18 0 -32 13t-25 32t-25.5 38t-41.5 32t-65 13q-70 0 -107.5 -48t-37.5 -122q0 -76 38 -163h191q15 0 15 -10v-24q0 -10 -15 -10h-174q26 -69 26 -133q0 -38 -13 -73q94 -44 154 -44q55 0 98.5 25.5t58.5 62.5zM135 26q45 0 69 49
q-39 22 -68 22q-22 0 -34 -9.5t-12 -25.5t12.5 -26t32.5 -10z" />
    <glyph glyph-name="currency" unicode="&#xa4;" horiz-adv-x="619" 
d="M489 217l67 -66q11 -11 1 -20l-15 -15q-8 -7 -21 1l-66 69q-63 -46 -149 -46q-84 0 -142 44l-66 -67q-10 -8 -19 -1l-16 15q-11 9 2 20l64 65q-48 54 -48 130q0 73 47 128l-63 64q-5 4 -6 10t4 9l16 15q9 9 19 -1l65 -65q61 45 143 45q88 0 150 -46l65 66q12 10 21 1
l15 -15q11 -7 -1 -19l-66 -65q48 -54 48 -127q0 -72 -49 -129zM308 192q69 0 113 45t44 109q0 63 -44 107.5t-113 44.5q-68 0 -110.5 -44.5t-42.5 -107.5q0 -64 42.5 -109t110.5 -45z" />
    <glyph glyph-name="yen" unicode="&#xa5;" horiz-adv-x="704" 
d="M651 710q19 0 19 -11v-3q0 -9 -20 -22t-32 -34l-196 -321h188q14 0 14 -10v-17q0 -10 -14 -10h-208v-63h190q15 0 15 -10v-17q0 -10 -15 -10h-190v-112q0 -15 9.5 -25t19 -17t9.5 -14v-2q0 -12 -20 -12h-125q-20 0 -20 12v2q0 7 18 21.5t18 34.5v112h-180q-14 0 -14 10
v17q0 10 14 10h180v62l-1 1h-197q-14 0 -14 10v17q0 10 14 10h173l-207 321q-11 18 -33 32.5t-22 23.5v2q0 12 20 12h145q21 0 21 -12v-2q0 -7 -12.5 -15.5t-19.5 -15.5t1 -25l195 -321l195 321q9 16 0 25.5t-22 16.5t-13 14v2q0 12 19 12h98z" />
    <glyph glyph-name="brokenbar" unicode="&#xa6;" horiz-adv-x="227" 
d="M93 349q-10 0 -10 14v332q0 13 11 15h38q12 0 12 -15v-332q0 -6 -3 -10.5t-8 -3.5h-40zM93 -90q-10 0 -10 15v312q0 15 11 15h38q12 0 12 -15v-312q0 -7 -3 -11.5t-8 -3.5h-40z" />
    <glyph glyph-name="section" unicode="&#xa7;" horiz-adv-x="612" 
d="M496 152q66 -45 66 -130q0 -68 -68.5 -119t-174.5 -51q-132 0 -209 56.5t-77 116.5q0 42 43 42q17 0 30.5 -18t28 -44t35.5 -52t62 -44t98 -18q63 0 103.5 31.5t40.5 74.5q0 39 -23 65t-60.5 39t-82 23t-89.5 22.5t-82 30.5t-59.5 53t-22.5 86q0 95 75 141
q-63 45 -63 126q0 82 67 130t168 48q118 0 190 -52.5t72 -112.5q0 -19 -11 -30.5t-32 -11.5q-17 0 -30.5 12.5t-21.5 30.5t-22 40t-30 40t-46.5 30.5t-71.5 12.5q-59 0 -102 -32t-43 -82q0 -40 23 -66.5t59.5 -40t81 -24t89 -23t81 -31.5t59.5 -54.5t23 -87.5
q0 -74 -74 -127zM141 348q0 -36 18.5 -61t52.5 -39.5t69 -23.5t82.5 -20.5t77.5 -23.5q45 40 45 81q0 33 -18.5 56.5t-53 37.5t-70 24t-83 22.5t-78.5 25.5q-42 -31 -42 -79z" />
    <glyph glyph-name="dieresis" unicode="&#xa8;" 
d="M185 577q-28 0 -45 16t-17 42t17 42t45 16q27 0 43.5 -16t16.5 -42t-16.5 -42t-43.5 -16zM376 577q-28 0 -45 16t-17 42t17 42t45 16q26 0 43.5 -16.5t17.5 -41.5t-17.5 -41.5t-43.5 -16.5z" />
    <glyph glyph-name="copyright" unicode="&#xa9;" horiz-adv-x="878" 
d="M439 -59q-167 0 -285 117.5t-118 284.5t118 284t285 117t285 -117.5t118 -283.5q0 -167 -118 -284.5t-285 -117.5zM439 -14q143 0 245 105t102 252q0 146 -102 251t-245 105t-245 -105t-102 -251q0 -147 101.5 -252t245.5 -105zM445 120q-95 0 -162 68.5t-67 159.5
q0 98 64 160.5t165 61.5q76 -1 133 -39.5t57 -83.5q0 -13 -10 -22.5t-26 -9.5q-17 0 -30.5 12.5t-24.5 30.5t-23.5 36.5t-34.5 31t-52 12.5q-61 0 -96.5 -45.5t-35.5 -115.5q0 -83 46.5 -136t127.5 -53q89 0 130 88q5 10 18.5 5t12.5 -19q-10 -60 -60 -101t-132 -41z" />
    <glyph glyph-name="ordfeminine" unicode="&#xaa;" horiz-adv-x="417" 
d="M349 436q2 -15 8.5 -23t13.5 -9t12 -4.5t5 -12.5q0 -21 -55 -21q-24 0 -35.5 9t-12.5 37q-31 -50 -107 -50q-61 0 -98.5 30t-37.5 79q0 50 37.5 79t99.5 29q56 0 88 -28l-2 17q-6 65 -26 93t-62 28q-24 0 -39 -11.5t-20 -26t-15 -26t-26 -11.5q-30 0 -30 29q0 32 38 54.5
t92 22.5q66 0 108 -38t50 -112zM199 392q31 0 54 19t22 47l-3 38q-6 22 -28 37t-52 15q-34 0 -55 -18.5t-21 -52.5q0 -37 22.5 -61t60.5 -24z" />
    <glyph glyph-name="guillemotleft" unicode="&#xab;" horiz-adv-x="514" 
d="M210 482q6 10 21.5 5.5t12.5 -15.5q-31 -106 -139 -186q100 -83 134 -168q1 -5 -6 -10t-17.5 -5t-18.5 9q-64 77 -154 150q-9 7 -8.5 27t8.5 26q108 77 167 167zM467 472q-33 -108 -139 -186q100 -83 134 -168q1 -5 -6 -10t-17.5 -5t-18.5 9q-64 77 -154 150
q-9 7 -8.5 27t8.5 26q108 77 167 167q6 10 21.5 5.5t12.5 -15.5z" />
    <glyph glyph-name="registered" unicode="&#xae;" horiz-adv-x="878" 
d="M439 744q167 0 285 -117.5t118 -283.5q0 -167 -118 -285.5t-285 -118.5t-285 118.5t-118 285.5t118 284t285 117zM439 -13q143 0 245 105t102 251t-102 251t-245 105t-245 -105t-102 -251q0 -147 101.5 -251.5t245.5 -104.5zM603 192q6 -9 12 -15t9.5 -8t6 -5t2.5 -7v-5
q0 -10 -13 -10h-102q-12 0 -12 9v6q0 4 11 12t3 23l-71 119l-73 -2v-118q0 -11 13 -20t13 -13v-7q0 -9 -13 -9h-104q-12 0 -12 9v7q0 4 12.5 13t12.5 20v336q0 12 -12.5 20.5t-12.5 14.5v3q0 8 12 8h139q92 0 145.5 -34.5t54.5 -96.5q1 -39 -27 -72t-77 -49zM400 341h43
q43 0 69 26t26 67q0 49 -27 78.5t-73 29.5h-43q-19 0 -19 -21v-156q0 -24 24 -24z" />
    <glyph glyph-name="macron" unicode="&#xaf;" 
d="M170 605q-18 0 -18 15v28q0 15 18 15h262q18 0 18 -15v-28q0 -15 -18 -15h-262z" />
    <glyph glyph-name="degree" unicode="&#xb0;" horiz-adv-x="401" 
d="M199 388q-73 0 -119 48t-46 116q0 69 46.5 117.5t119.5 48.5t120 -47.5t47 -115.5q0 -70 -47 -118.5t-121 -48.5zM200 420q45 0 73.5 38t28.5 96t-28.5 95t-73.5 37t-73.5 -37t-28.5 -95t28.5 -96t73.5 -38z" />
    <glyph glyph-name="plusminus" unicode="&#xb1;" 
d="M281 132q-11 0 -11 15v160h-159q-14 0 -16 11l1 36q0 11 15 11h159v160q0 14 11 16l38 -1q11 0 11 -15v-160h160q15 0 15 -10v-37q0 -11 -15 -11h-159v-160q0 -7 -3.5 -11.5t-8.5 -3.5h-38zM111 0q-15 0 -15 10v37q0 10 15 10h379q15 0 15 -10v-37q0 -10 -15 -10h-379z
" />
    <glyph glyph-name="acute" unicode="&#xb4;" horiz-adv-x="416" 
d="M105 555q-17 -7 -26 6q-6 14 6 24l176 126q23 17 36 -7l16 -32q12 -22 -14 -32z" />
    <glyph glyph-name="paragraph" unicode="&#xb6;" horiz-adv-x="637" 
d="M333 -195q-50 0 -93 16.5t-68.5 42t-40 52.5t-14.5 49t12 35t32 13q26 0 42 -26.5t24.5 -58t37.5 -58t78 -26.5q120 0 120 179v643h-93v-408q0 -18 -18 -18l-94 -1q-98 -1 -164 66.5t-66 174.5q0 102 66 166t164 64h307q21 0 21 -14v-2q0 -10 -21 -22.5t-21 -35.5
l-1 -576q0 -125 -58.5 -189.5t-151.5 -65.5z" />
    <glyph glyph-name="periodcentered" unicode="&#xb7;" horiz-adv-x="229" 
d="M115 326q-28 0 -46.5 15.5t-18.5 44.5q0 30 18.5 45.5t46.5 15.5t46 -16t18 -45t-18 -44.5t-46 -15.5z" />
    <glyph glyph-name="cedilla" unicode="&#xb8;" 
d="M331 -56q45 0 76.5 -19t31.5 -54q0 -34 -33 -54.5t-81 -20.5q-46 0 -82 20q-16 8 -9 27q5 15 17 8q27 -17 61 -17q25 0 42 10t16 30q-1 37 -63 37q-29 0 -23 30l11 59h39z" />
    <glyph glyph-name="ordmasculine" unicode="&#xba;" horiz-adv-x="428" 
d="M219 364q-80 0 -133.5 51.5t-53.5 129.5q0 76 51 125.5t131 49.5q75 0 128 -53t53 -130q0 -75 -51 -124t-125 -49zM224 394q43 0 69.5 36t26.5 93q0 70 -33.5 118.5t-83.5 48.5q-46 0 -72 -35.5t-26 -88.5q0 -73 34 -122.5t85 -49.5z" />
    <glyph glyph-name="guillemotright" unicode="&#xbb;" horiz-adv-x="515" 
d="M249 315q8 -6 8 -26t-8 -27q-90 -73 -154 -150q-8 -9 -18.5 -9t-17.5 5t-6 10q34 85 133 168q-107 80 -138 186q-3 11 12.5 15.5t21.5 -5.5q59 -90 167 -167zM473 315q8 -6 8 -26t-8 -27q-94 -75 -154 -150q-8 -9 -18.5 -9t-17.5 5t-6 10q32 84 133 168q-107 80 -138 186
q-3 11 12.5 15.5t21.5 -5.5q57 -89 167 -167z" />
    <glyph glyph-name="onequarter" unicode="&#xbc;" horiz-adv-x="691" 
d="M187 353q0 -9 -17 -9h-102q-17 0 -17 9v4q0 4 17.5 14.5t17.5 28.5v223q0 21 -13.5 25.5t-25.5 1t-14 8.5v2q0 11 14 16l110 39q18 7 18 -8v-3q0 -4 -12 -18.5t-12 -37.5v-248q0 -18 18 -28.5t18 -14.5v-4zM557 566q11 -8 -1 -20l-393 -397q-10 -12 -23 -1l-17 16
q-11 10 -2 19l396 399q11 9 22 2zM651 127q11 0 11 -9v-15q0 -9 -11 -9h-55v-42q0 -17 16 -26.5t16 -15.5v-2q0 -9 -13 -9h-95q-14 0 -14 9v2q0 6 15.5 15.5t15.5 26.5v42h-176q-17 0 -17 14v5q0 14 7 22l174 232q12 17 28 17h33q10 0 10 -13v-244h55zM386 127h151v206z" />
    <glyph glyph-name="onehalf" unicode="&#xbd;" horiz-adv-x="728" 
d="M181 353q0 -9 -16 -9h-96q-17 0 -17 9v4q0 4 15.5 14.5t15.5 28.5v225q0 20 -13 24t-24 0.5t-13 8.5v2q0 12 15 16l106 39q18 6 18 -8v-3q0 -5 -12 -18.5t-12 -35.5v-250q0 -18 16.5 -28.5t16.5 -14.5v-4zM554 566q11 -8 0 -20l-394 -397q-9 -13 -23 -1l-17 16
q-11 10 -2 19l396 399q12 10 22 2zM691 103q12 0 9 -11l-23 -80q-4 -11 -13 -11h-259q-10 0 -10 10v4q0 33 22 62.5t53.5 51.5t63.5 43t54 46.5t22 52.5q0 31 -18.5 48.5t-48.5 17.5q-26 0 -43.5 -15t-24.5 -32.5t-17.5 -32.5t-23.5 -15q-28 0 -28 31q0 34 41.5 63.5
t96.5 29.5q59 0 94 -27.5t35 -71.5q0 -38 -30.5 -71t-68.5 -52.5t-78 -46.5t-53 -52h178q16 0 27 14.5t19 29t16 14.5h8z" />
    <glyph glyph-name="threequarters" unicode="&#xbe;" horiz-adv-x="720" 
d="M320 457q0 -46 -39.5 -77.5t-102.5 -31.5q-67 0 -108.5 30.5t-41.5 61.5q0 27 24 27q13 0 24 -14.5t19 -32t29 -32t52 -14.5q35 0 59 21.5t24 52.5q0 38 -26 60t-70 22h-7q-10 0 -13.5 8.5t3.5 18.5l89 106h-173q-14 0 -14 12v24q0 11 14 11h243q11 0 11 -9v-4
q0 -7 -8 -15l-122 -126q60 -3 97 -28t37 -71zM626 566q10 -9 0 -20l-394 -397q-10 -12 -23 -1l-18 16q-10 10 -1 19l395 399q13 9 22 2zM675 127q11 0 11 -9v-15q0 -9 -11 -9h-55v-42q0 -17 16 -26.5t16 -15.5v-2q0 -9 -13 -9h-95q-14 0 -14 9v2q0 6 15.5 15.5t15.5 26.5v42
h-176q-18 0 -18 14v5q0 13 8 22l173 232q14 17 28 17h33q11 0 11 -13v-244h55zM410 127h151v206z" />
    <glyph glyph-name="questiondown" unicode="&#xbf;" horiz-adv-x="504" 
d="M275 382q-26 0 -43.5 15.5t-17.5 41.5q0 28 17.5 44t43.5 16t44 -16t18 -44q0 -26 -18 -41.5t-44 -15.5zM249 -228q-97 0 -158.5 47t-61.5 137q0 48 22.5 87.5t54.5 67t64 54t54.5 61t22.5 74.5q0 12 15 17t31 0.5t19 -17.5q4 -46 -14 -85t-47.5 -67t-59.5 -55.5
t-51.5 -64.5t-21.5 -81q0 -62 38 -98t90 -36q48 0 79.5 26.5t43 58t28 58t38.5 26.5q21 0 33.5 -11.5t12.5 -33.5q0 -53 -67 -109t-165 -56z" />
    <glyph glyph-name="Agrave" unicode="&#xc0;" horiz-adv-x="672" 
d="M413 784l-207 47q-27 5 -20 29l10 34q8 26 34 14l197 -90q15 -8 10 -23q-6 -13 -24 -11zM27 0q-20 0 -20 12v2q0 8 19.5 21.5t27.5 34.5l222 567q6 16 -13.5 34.5t-19.5 24.5v2q0 12 17 12h128q16 0 16 -12v-2q0 -7 -11 -15.5t-19 -18.5t-3 -23l247 -569q8 -20 28 -33.5
t20 -22.5v-2q0 -12 -20 -12h-135q-20 0 -20 12v2q0 6 7.5 12t15 10t12 13t-0.5 21l-49 118h-322l-45 -118q-5 -12 -0.5 -21t12 -13t15 -10t7.5 -12v-2q0 -12 -21 -12h-95zM170 231h291l-152 367z" />
    <glyph glyph-name="Aacute" unicode="&#xc1;" horiz-adv-x="672" 
d="M244 782q-19 -2 -24 12q-5 15 10 22l198 88q26 12 34 -15l9 -34q3 -11 -2.5 -19t-17.5 -9zM27 0q-20 0 -20 12v2q0 8 19.5 21.5t27.5 34.5l222 567q6 16 -13.5 34.5t-19.5 24.5v2q0 12 17 12h128q16 0 16 -12v-2q0 -7 -11 -15.5t-19 -18.5t-3 -23l247 -569
q8 -20 28 -33.5t20 -22.5v-2q0 -12 -20 -12h-135q-20 0 -20 12v2q0 6 7.5 12t15 10t12 13t-0.5 21l-49 118h-322l-45 -118q-5 -12 -0.5 -21t12 -13t15 -10t7.5 -12v-2q0 -12 -21 -12h-95zM170 231h291l-152 367z" />
    <glyph glyph-name="Acircumflex" unicode="&#xc2;" horiz-adv-x="672" 
d="M205 765q-14 -9 -25.5 2.5t3.5 25.5l110 101q14 14 30 14h19q14 0 30 -14l115 -101q15 -14 5 -26.5t-28 -1.5l-134 77zM618 70q8 -20 28 -33.5t20 -22.5v-2q0 -12 -20 -12h-135q-20 0 -20 12v2q0 6 7.5 12t15 10t12 13t-0.5 21l-49 118h-322l-45 -118q-5 -12 -0.5 -21
t12 -13t15 -10t7.5 -12v-2q0 -12 -21 -12h-95q-20 0 -20 12v2q0 8 19.5 21.5t27.5 34.5l222 567q6 16 -13.5 34.5t-19.5 24.5v2q0 12 17 12h128q16 0 16 -12v-2q0 -7 -11 -15.5t-19 -18.5t-3 -23zM170 231h291l-152 367z" />
    <glyph glyph-name="Atilde" unicode="&#xc3;" horiz-adv-x="672" 
d="M269 894q34 0 84.5 -28.5t68.5 -28.5q35 0 51 34q5 13 17 13h6q15 0 10 -17q-22 -93 -95 -93q-32 0 -81.5 29t-71.5 29q-34 0 -51 -35q-7 -15 -16 -15h-9q-13 0 -10 17q8 41 33 68t64 27zM27 0q-20 0 -20 12v2q0 8 19.5 21.5t27.5 34.5l222 567q6 16 -13.5 34.5
t-19.5 24.5v2q0 12 17 12h128q16 0 16 -12v-2q0 -7 -11 -15.5t-19 -18.5t-3 -23l247 -569q8 -20 28 -33.5t20 -22.5v-2q0 -12 -20 -12h-135q-20 0 -20 12v2q0 6 7.5 12t15 10t12 13t-0.5 21l-49 118h-322l-45 -118q-5 -12 -0.5 -21t12 -13t15 -10t7.5 -12v-2q0 -12 -21 -12
h-95zM170 231h291l-152 367z" />
    <glyph glyph-name="Adieresis" unicode="&#xc4;" horiz-adv-x="672" 
d="M241 791q-28 0 -45 16t-17 42t17 42t45 16q27 0 43.5 -16t16.5 -42t-16.5 -42t-43.5 -16zM431 791q-28 0 -44.5 16t-16.5 42t16.5 42t44.5 16q27 0 44 -16t17 -42t-17 -42t-44 -16zM27 0q-20 0 -20 12v2q0 8 19.5 21.5t27.5 34.5l222 567q6 16 -13.5 34.5t-19.5 24.5v2
q0 12 17 12h128q16 0 16 -12v-2q0 -7 -11 -15.5t-19 -18.5t-3 -23l247 -569q8 -20 28 -33.5t20 -22.5v-2q0 -12 -20 -12h-135q-20 0 -20 12v2q0 6 7.5 12t15 10t12 13t-0.5 21l-49 118h-322l-45 -118q-5 -12 -0.5 -21t12 -13t15 -10t7.5 -12v-2q0 -12 -21 -12h-95zM170 231
h291l-152 367z" />
    <glyph glyph-name="Aring" unicode="&#xc5;" horiz-adv-x="672" 
d="M336 758q-50 0 -83 28.5t-33 70.5q0 44 33 73t84 29t84.5 -28.5t33.5 -70.5q0 -44 -33 -73t-86 -29zM337 789q27 0 44 19t17 51q0 29 -17 48t-44 19t-43.5 -18.5t-16.5 -48.5t17 -50t43 -20zM27 0q-20 0 -20 12v2q0 8 19.5 21.5t27.5 34.5l222 567q6 16 -13.5 34.5
t-19.5 24.5v2q0 12 17 12h128q16 0 16 -12v-2q0 -7 -11 -15.5t-19 -18.5t-3 -23l247 -569q8 -20 28 -33.5t20 -22.5v-2q0 -12 -20 -12h-135q-20 0 -20 12v2q0 6 7.5 12t15 10t12 13t-0.5 21l-49 118h-322l-45 -118q-5 -12 -0.5 -21t12 -13t15 -10t7.5 -12v-2q0 -12 -21 -12
h-95zM170 231h291l-152 367z" />
    <glyph glyph-name="AE" unicode="&#xc6;" horiz-adv-x="930" 
d="M899 141q16 0 11 -17l-25 -101q-3 -23 -25 -23h-413q-21 0 -21 12v2q0 9 18.5 23.5t18.5 33.5v118h-261l-70 -119q-7 -18 -1 -25t17 -15t11 -15v-2q0 -13 -20 -13h-124q-21 0 -21 13v2q0 6 5.5 11t13.5 9t18.5 13t18.5 22l333 555q10 22 5 32t-16 20.5t-11 16.5v4
q0 12 18 12h452q20 0 26 -22l23 -97q2 -9 -2 -14t-11 -5h-5q-10 0 -22 15t-22 33.5t-26.5 33.5t-34.5 15h-183q-28 0 -28 -35v-248h188q13 0 22.5 9t14.5 20t11 20t12 9h4q13 0 13 -20v-116q0 -20 -13 -20h-4q-6 0 -12 8.5t-11 19t-14.5 19t-22.5 8.5h-188v-262
q0 -19 10 -30t26 -11h205q19 0 36 16t27 34.5t22 34.5t22 16h5zM228 233h235v402z" />
    <glyph glyph-name="Ccedilla" unicode="&#xc7;" horiz-adv-x="678" 
d="M615 236q9 16 25 12t12 -25q-17 -94 -87 -161.5t-181 -71.5l-3 -46q46 0 76.5 -19t30.5 -54q0 -34 -32.5 -54.5t-80.5 -20.5q-47 0 -83 20q-15 8 -8 27q5 15 16 8q29 -17 62 -17q25 0 42 10t16 30q-1 37 -64 37q-12 0 -18.5 8t-4.5 22l10 50q-125 13 -217.5 122
t-92.5 249q0 157 93.5 257t238.5 100q110 0 191.5 -62.5t81.5 -122.5q0 -20 -11.5 -31.5t-32.5 -11.5q-20 0 -36.5 19.5t-32.5 46.5t-36.5 54.5t-58 47t-88.5 19.5q-90 0 -154.5 -75t-64.5 -191q0 -147 81.5 -244.5t190.5 -97.5q81 0 136.5 49t83.5 117z" />
    <glyph glyph-name="Egrave" unicode="&#xc8;" 
d="M378 784l-207 47q-26 5 -19 29l10 34q8 26 34 14l197 -90q14 -7 9 -23q-5 -13 -24 -11zM80 0q-21 0 -21 12v2q0 7 18.5 21.5t18.5 35.5v568q0 16 -9 26.5t-18.5 17t-9.5 13.5v3q0 11 18 11h424q20 0 25 -22l24 -99q4 -20 -12 -20h-5q-10 0 -22.5 15.5t-23 34.5t-27 34.5
t-34.5 15.5h-212q-28 0 -28 -34v-251h182q13 0 22 9t13.5 20.5t10 20.5t12.5 9h4q13 0 13 -17v-123q0 -17 -13 -17h-4q-7 0 -12.5 9t-10 19.5t-13.5 19.5t-22 9h-182l-1 -259q0 -18 9.5 -30.5t27.5 -12.5h235q18 0 34 16t25.5 35.5t22 35.5t23.5 16h6q7 0 10.5 -6t1.5 -14
l-24 -101q-5 -23 -26 -23h-450z" />
    <glyph glyph-name="Eacute" unicode="&#xc9;" 
d="M209 782q-18 -2 -23 12q-5 15 10 22l198 88q26 12 34 -15l9 -34q3 -11 -2.5 -19t-17.5 -9zM80 0q-21 0 -21 12v2q0 7 18.5 21.5t18.5 35.5v568q0 16 -9 26.5t-18.5 17t-9.5 13.5v3q0 11 18 11h424q20 0 25 -22l24 -99q4 -20 -12 -20h-5q-10 0 -22.5 15.5t-23 34.5
t-27 34.5t-34.5 15.5h-212q-28 0 -28 -34v-251h182q13 0 22 9t13.5 20.5t10 20.5t12.5 9h4q13 0 13 -17v-123q0 -17 -13 -17h-4q-7 0 -12.5 9t-10 19.5t-13.5 19.5t-22 9h-182l-1 -259q0 -18 9.5 -30.5t27.5 -12.5h235q18 0 34 16t25.5 35.5t22 35.5t23.5 16h6q7 0 10.5 -6
t1.5 -14l-24 -101q-5 -23 -26 -23h-450z" />
    <glyph glyph-name="Ecircumflex" unicode="&#xca;" 
d="M172 765q-14 -9 -25.5 2.5t3.5 25.5l110 101q14 14 30 14h18q14 0 31 -14l114 -101q15 -14 5.5 -26.5t-28.5 -1.5l-133 77zM568 144q7 0 10.5 -6t1.5 -14l-24 -101q-5 -23 -26 -23h-450q-21 0 -21 12v2q0 7 18.5 21.5t18.5 35.5v568q0 16 -9 26.5t-18.5 17t-9.5 13.5v3
q0 11 18 11h424q20 0 25 -22l24 -99q4 -20 -12 -20h-5q-10 0 -22.5 15.5t-23 34.5t-27 34.5t-34.5 15.5h-212q-28 0 -28 -34v-251h182q13 0 22 9t13.5 20.5t10 20.5t12.5 9h4q13 0 13 -17v-123q0 -17 -13 -17h-4q-7 0 -12.5 9t-10 19.5t-13.5 19.5t-22 9h-182l-1 -259
q0 -18 9.5 -30.5t27.5 -12.5h235q18 0 34 16t25.5 35.5t22 35.5t23.5 16h6z" />
    <glyph glyph-name="Edieresis" unicode="&#xcb;" 
d="M205 791q-28 0 -45 16t-17 42t17 42t45 16q27 0 43.5 -16t16.5 -42t-16.5 -42t-43.5 -16zM395 791q-28 0 -44.5 16t-16.5 42t16.5 42t44.5 16q27 0 44 -16t17 -42t-17 -42t-44 -16zM80 0q-21 0 -21 12v2q0 7 18.5 21.5t18.5 35.5v568q0 16 -9 26.5t-18.5 17t-9.5 13.5v3
q0 11 18 11h424q20 0 25 -22l24 -99q4 -20 -12 -20h-5q-10 0 -22.5 15.5t-23 34.5t-27 34.5t-34.5 15.5h-212q-28 0 -28 -34v-251h182q13 0 22 9t13.5 20.5t10 20.5t12.5 9h4q13 0 13 -17v-123q0 -17 -13 -17h-4q-7 0 -12.5 9t-10 19.5t-13.5 19.5t-22 9h-182l-1 -259
q0 -18 9.5 -30.5t27.5 -12.5h235q18 0 34 16t25.5 35.5t22 35.5t23.5 16h6q7 0 10.5 -6t1.5 -14l-24 -101q-5 -23 -26 -23h-450z" />
    <glyph glyph-name="Igrave" unicode="&#xcc;" horiz-adv-x="284" 
d="M217 784l-207 47q-27 5 -20 29l10 34q8 26 34 14l197 -90q15 -8 10 -23q-5 -13 -24 -11zM60 12v2q0 7 18 21t18 34v571q0 20 -18 34.5t-18 21.5v2q0 12 20 12h125q20 0 20 -12v-2q0 -7 -9.5 -14t-19 -17t-9.5 -25v-571q0 -20 19 -34t19 -21v-2q0 -12 -20 -12h-125
q-20 0 -20 12z" />
    <glyph glyph-name="Iacute" unicode="&#xcd;" horiz-adv-x="284" 
d="M48 782q-18 -2 -23 12q-5 15 10 22l198 88q26 12 34 -15l9 -34q3 -11 -2.5 -19t-17.5 -9zM60 12v2q0 7 18 21t18 34v571q0 20 -18 34.5t-18 21.5v2q0 12 20 12h125q20 0 20 -12v-2q0 -7 -9.5 -14t-19 -17t-9.5 -25v-571q0 -20 19 -34t19 -21v-2q0 -12 -20 -12h-125
q-20 0 -20 12z" />
    <glyph glyph-name="Icircumflex" unicode="&#xce;" horiz-adv-x="284" 
d="M292 793q15 -14 5 -26.5t-29 -1.5l-133 77l-125 -77q-14 -9 -25.5 2.5t3.5 25.5l110 101q14 14 30 14h19q14 0 30 -14zM205 710q20 0 20 -12v-2q0 -7 -9.5 -14t-19 -17t-9.5 -25v-571q0 -20 19 -34t19 -21v-2q0 -12 -20 -12h-125q-20 0 -20 12v2q0 7 18 21t18 34v571
q0 20 -18 34.5t-18 21.5v2q0 12 20 12h125z" />
    <glyph glyph-name="Idieresis" unicode="&#xcf;" horiz-adv-x="284" 
d="M46 791q-28 0 -45 16t-17 42t17 42t45 16q27 0 43.5 -16t16.5 -42t-16.5 -42t-43.5 -16zM236 791q-28 0 -44.5 16t-16.5 42t16.5 42t44.5 16q27 0 44 -16t17 -42t-17 -42t-44 -16zM60 12v2q0 7 18 21t18 34v571q0 20 -18 34.5t-18 21.5v2q0 12 20 12h125q20 0 20 -12v-2
q0 -7 -9.5 -14t-19 -17t-9.5 -25v-571q0 -20 19 -34t19 -21v-2q0 -12 -20 -12h-125q-20 0 -20 12z" />
    <glyph glyph-name="Eth" unicode="&#xd0;" horiz-adv-x="745" 
d="M302 710q169 0 286.5 -97.5t117.5 -251.5q0 -165 -104.5 -263t-263.5 -98h-255q-21 0 -21 12v2q0 8 18.5 22.5t18.5 33.5v269h-55q-15 0 -15 12v16q0 12 15 12h55v261q0 20 -18.5 34.5t-18.5 21.5v2q0 12 21 12h219zM332 41q120 0 200.5 77.5t80.5 210.5
q0 151 -97.5 245.5t-229.5 94.5h-70q-28 0 -28 -32v-258h139q15 0 15 -12v-15q0 -13 -15 -13h-139v-243q0 -26 12.5 -40.5t34.5 -14.5h97z" />
    <glyph glyph-name="Ntilde" unicode="&#xd1;" horiz-adv-x="750" 
d="M237 782q-13 0 -10 17q8 41 32.5 68t63.5 27q35 0 85 -28.5t69 -28.5q35 0 51 34q5 13 16 13h7q15 0 10 -17q-23 -93 -96 -93q-31 0 -81 29t-72 29q-34 0 -50 -35q-8 -15 -17 -15h-8zM676 710q20 0 20 -11v-3q0 -7 -20 -21.5t-20 -34.5v-613q0 -27 -25 -27h-25
q-17 0 -34 26l-425 580v-533q0 -19 21.5 -35t21.5 -24v-2q0 -12 -21 -12h-91q-20 0 -20 12v2q0 8 19 24t19 35v566q0 19 -19 34t-19 23v2q0 12 20 12h149q16 0 16 -11v-3q0 -5 -11 -13.5t-15.5 -16.5t6.5 -27l382 -524v525q0 20 -20.5 34.5t-20.5 21.5v3q0 11 21 11h91z" />
    <glyph glyph-name="Ograve" unicode="&#xd2;" horiz-adv-x="771" 
d="M460 784l-207 47q-26 5 -19 29l10 34q8 26 34 14l197 -90q14 -7 9 -23q-5 -13 -24 -11zM394 -10q-154 0 -255 109t-101 258q0 157 98 260t251 103q151 0 249 -108t98 -261q0 -149 -98.5 -255t-241.5 -106zM416 33q98 0 163 77t65 181q0 162 -81 274t-207 112
q-100 0 -164 -74t-64 -185q0 -159 81.5 -272t206.5 -113z" />
    <glyph glyph-name="Oacute" unicode="&#xd3;" horiz-adv-x="771" 
d="M291 782q-18 -2 -23 12q-5 15 10 22l198 88q26 12 34 -15l9 -34q3 -11 -2.5 -19t-17.5 -9zM394 -10q-154 0 -255 109t-101 258q0 157 98 260t251 103q151 0 249 -108t98 -261q0 -149 -98.5 -255t-241.5 -106zM416 33q98 0 163 77t65 181q0 162 -81 274t-207 112
q-100 0 -164 -74t-64 -185q0 -159 81.5 -272t206.5 -113z" />
    <glyph glyph-name="Ocircumflex" unicode="&#xd4;" horiz-adv-x="771" 
d="M254 765q-14 -9 -25.5 2.5t3.5 25.5l110 101q14 14 30 14h18q14 0 31 -14l114 -101q15 -14 5.5 -26.5t-28.5 -1.5l-133 77zM387 720q151 0 249 -108t98 -261q0 -149 -98.5 -255t-241.5 -106q-154 0 -255 109t-101 258q0 157 98 260t251 103zM416 33q98 0 163 77t65 181
q0 162 -81 274t-207 112q-100 0 -164 -74t-64 -185q0 -159 81.5 -272t206.5 -113z" />
    <glyph glyph-name="Otilde" unicode="&#xd5;" horiz-adv-x="771" 
d="M318 894q34 0 84 -28.5t69 -28.5q35 0 51 34q5 13 16 13h7q15 0 10 -17q-23 -93 -95 -93q-32 0 -81.5 29t-71.5 29q-33 0 -51 -35q-7 -15 -16 -15h-9q-13 0 -10 17q8 42 32.5 68.5t64.5 26.5zM394 -10q-154 0 -255 109t-101 258q0 157 98 260t251 103q151 0 249 -108
t98 -261q0 -149 -98.5 -255t-241.5 -106zM416 33q98 0 163 77t65 181q0 162 -81 274t-207 112q-100 0 -164 -74t-64 -185q0 -159 81.5 -272t206.5 -113z" />
    <glyph glyph-name="Odieresis" unicode="&#xd6;" horiz-adv-x="771" 
d="M290 791q-28 0 -45.5 16t-17.5 42t17.5 42t45.5 16q27 0 43 -16t16 -42t-16 -42t-43 -16zM480 791q-28 0 -44.5 16t-16.5 42t16.5 42t44.5 16q26 0 43.5 -16.5t17.5 -41.5t-17.5 -41.5t-43.5 -16.5zM394 -10q-154 0 -255 109t-101 258q0 157 98 260t251 103
q151 0 249 -108t98 -261q0 -149 -98.5 -255t-241.5 -106zM416 33q98 0 163 77t65 181q0 162 -81 274t-207 112q-100 0 -164 -74t-64 -185q0 -159 81.5 -272t206.5 -113z" />
    <glyph glyph-name="multiply" unicode="&#xd7;" 
d="M168 113l-25 26q-7 7 3 18l113 113l-113 114q-10 10 -3 18l25 26q8 6 18 -3l114 -113l114 113q11 11 18 3l25 -26q8 -7 -3 -18l-113 -112l114 -115q10 -12 2 -18l-25 -26q-7 -7 -18 4l-114 112l-114 -112q-10 -10 -18 -4z" />
    <glyph glyph-name="Oslash" unicode="&#xd8;" horiz-adv-x="787" 
d="M665 588q78 -100 78 -237q0 -149 -98.5 -255t-241.5 -106q-151 0 -254 108l-74 -71q-11 -7 -18 0l-15 14q-7 7 4 18l75 72q-74 99 -74 226q0 157 98 260t251 103q144 0 241 -100l62 59q12 12 21 3l13 -12q9 -8 -3 -20zM137 418q0 -123 52 -224l386 367q-83 116 -210 116
q-100 0 -164 -74t-64 -185zM425 33q98 0 163 77t65 181q0 131 -55 233l-387 -368q84 -123 214 -123z" />
    <glyph glyph-name="Ugrave" unicode="&#xd9;" horiz-adv-x="743" 
d="M238 831q-27 5 -20 29l10 34q8 26 34 14l197 -90q15 -8 10 -23q-6 -13 -24 -11zM644 86q0 -24 9 -36.5t20.5 -13t20.5 -4.5t9 -14q0 -24 -69 -24q-38 0 -54.5 18t-15.5 85l-3 13q-60 -120 -224 -120q-115 0 -183.5 75t-68.5 204v354q0 16 -9 27.5t-18 18.5t-9 13v3
q0 12 15 15l86 17q29 6 29 -12l-2 -446q0 -106 48.5 -168t131.5 -62q92 0 145.5 57.5t53.5 147.5v389q0 16 -10 27.5t-20.5 18.5t-10.5 13v3q0 11 17 15l85 17q27 5 27 -12v-619z" />
    <glyph glyph-name="Uacute" unicode="&#xda;" horiz-adv-x="743" 
d="M276 782q-18 -2 -24 12q-3 15 11 22l198 88q26 13 34 -15l9 -34q3 -11 -2.5 -19t-17.5 -9zM644 86q0 -24 9 -36.5t20.5 -13t20.5 -4.5t9 -14q0 -24 -69 -24q-38 0 -54.5 18t-15.5 85l-3 13q-60 -120 -224 -120q-115 0 -183.5 75t-68.5 204v354q0 16 -9 27.5t-18 18.5
t-9 13v3q0 12 15 15l86 17q29 6 29 -12l-2 -446q0 -106 48.5 -168t131.5 -62q92 0 145.5 57.5t53.5 147.5v389q0 16 -10 27.5t-20.5 18.5t-10.5 13v3q0 11 17 15l85 17q27 5 27 -12v-619z" />
    <glyph glyph-name="Ucircumflex" unicode="&#xdb;" horiz-adv-x="743" 
d="M238 765q-14 -9 -25.5 2.5t3.5 25.5l110 101q14 14 30 14h19q13 0 30 -14l115 -101q15 -14 5 -26.5t-29 -1.5l-133 77zM644 86q0 -24 9 -36.5t20.5 -13t20.5 -4.5t9 -14q0 -24 -69 -24q-38 0 -54.5 18t-15.5 85l-3 13q-60 -120 -224 -120q-115 0 -183.5 75t-68.5 204v354
q0 16 -9 27.5t-18 18.5t-9 13v3q0 12 15 15l86 17q29 6 29 -12l-2 -446q0 -106 48.5 -168t131.5 -62q92 0 145.5 57.5t53.5 147.5v389q0 16 -10 27.5t-20.5 18.5t-10.5 13v3q0 11 17 15l85 17q27 5 27 -12v-619z" />
    <glyph glyph-name="Udieresis" unicode="&#xdc;" horiz-adv-x="743" 
d="M274 791q-28 0 -45 16t-17 42t17 42t45 16q27 0 43.5 -16t16.5 -42t-16.5 -42t-43.5 -16zM464 791q-28 0 -44.5 16t-16.5 42t16.5 42t44.5 16q27 0 44 -16t17 -42t-17 -42t-44 -16zM644 86q0 -24 9 -36.5t20.5 -13t20.5 -4.5t9 -14q0 -24 -69 -24q-38 0 -54.5 18
t-15.5 85l-3 13q-60 -120 -224 -120q-115 0 -183.5 75t-68.5 204v354q0 16 -9 27.5t-18 18.5t-9 13v3q0 12 15 15l86 17q29 6 29 -12l-2 -446q0 -106 48.5 -168t131.5 -62q92 0 145.5 57.5t53.5 147.5v389q0 16 -10 27.5t-20.5 18.5t-10.5 13v3q0 11 17 15l85 17
q27 5 27 -12v-619z" />
    <glyph glyph-name="Yacute" unicode="&#xdd;" horiz-adv-x="660" 
d="M250 782q-19 -2 -24 12q-5 15 10 22l198 88q26 12 34 -15l9 -34q3 -11 -2.5 -19t-17.5 -9zM631 710q20 0 20 -11v-3q0 -9 -20.5 -22t-32.5 -34l-216 -353v-217q0 -15 9.5 -25t19 -17t9.5 -14v-2q0 -12 -19 -12h-126q-20 0 -20 12v2q0 7 18 21.5t18 34.5v211l-232 359
q-11 18 -33 32.5t-22 23.5v2q0 12 20 12h146q20 0 20 -12v-2q0 -7 -12.5 -15.5t-19 -15.5t0.5 -25l195 -321l195 321q8 19 0.5 26t-21 15t-13.5 15v2q0 12 18 12h98z" />
    <glyph glyph-name="Thorn" unicode="&#xde;" horiz-adv-x="622" 
d="M80 0q-20 0 -20 13v3q0 7 18 21t18 34v568q0 21 -18 35.5t-18 21.5v2q0 12 20 12h125q20 0 20 -12v-2q0 -7 -19 -21.5t-19 -35.5v-47h91q137 0 224 -57t87 -164q0 -112 -79 -173t-215 -61h-108v-66q0 -20 19 -34t19 -21v-3q0 -13 -20 -13h-125zM216 179h85q90 0 143 46
t53 130q0 93 -63 144.5t-153 51.5h-65q-29 0 -29 -32v-311q0 -29 29 -29z" />
    <glyph glyph-name="germandbls" unicode="&#xdf;" horiz-adv-x="562" 
d="M368 393q71 -15 116.5 -68t45.5 -134q0 -88 -62 -139.5t-153 -51.5q-12 0 -16.5 9.5t-0.5 19.5t14 10q56 0 92.5 35t36.5 105q0 83 -40.5 136t-110.5 53q-15 0 -15 20t15 20q38 0 69 38t31 98q0 76 -31 118.5t-88 43.5q-52 0 -82 -37.5t-30 -96.5v-499q0 -17 11 -27
t22 -17t11 -15v-3q0 -8 -3 -9.5t-12 -1.5h-139q-15 0 -15 11v3q0 7 19 22t19 37v468q0 87 55.5 142t147.5 55q84 0 141.5 -51t57.5 -133q0 -54 -30.5 -97.5t-75.5 -63.5z" />
    <glyph glyph-name="agrave" unicode="&#xe0;" horiz-adv-x="578" 
d="M184 640q-24 8 -14 32l17 32q11 24 36 7l176 -126q13 -11 5 -24t-26 -7zM536 448q0 -6 -9.5 -13t-19 -18.5t-9.5 -28.5v-318q0 -20 18.5 -35t18.5 -21v-3q0 -11 -14 -11h-85q-16 0 -16 16v56q-24 -40 -65.5 -61t-89.5 -21q-95 0 -163 70t-68 181q0 109 67 179t168 70
q96 0 152 -75v54q0 12 8.5 17t22.5 0l69 -18q15 -4 15 -17v-3zM286 23q48 0 87.5 38.5t39.5 105.5v151q0 50 -43.5 95t-101.5 45q-65 0 -106 -51.5t-42 -135.5q-2 -104 45 -175.5t121 -72.5z" />
    <glyph glyph-name="aacute" unicode="&#xe1;" horiz-adv-x="578" 
d="M208 557q-17 -5 -25 7q-7 12 5 24l177 126q22 17 36 -7l15 -32q6 -10 2 -19t-15 -13zM536 448q0 -6 -9.5 -13t-19 -18.5t-9.5 -28.5v-318q0 -20 18.5 -35t18.5 -21v-3q0 -11 -14 -11h-85q-16 0 -16 16v56q-24 -40 -65.5 -61t-89.5 -21q-95 0 -163 70t-68 181
q0 109 67 179t168 70q96 0 152 -75v54q0 12 8.5 17t22.5 0l69 -18q15 -4 15 -17v-3zM286 23q48 0 87.5 38.5t39.5 105.5v151q0 50 -43.5 95t-101.5 45q-65 0 -106 -51.5t-42 -135.5q-2 -104 45 -175.5t121 -72.5z" />
    <glyph glyph-name="acircumflex" unicode="&#xe2;" horiz-adv-x="578" 
d="M162 557q-14 -8 -25.5 3.5t3.5 25.5l110 101q14 13 30 13h19q16 0 30 -13l115 -101q15 -14 5 -26.5t-28 -2.5l-134 77zM536 448q0 -6 -9.5 -13t-19 -18.5t-9.5 -28.5v-318q0 -20 18.5 -35t18.5 -21v-3q0 -11 -14 -11h-85q-16 0 -16 16v56q-24 -40 -65.5 -61t-89.5 -21
q-95 0 -163 70t-68 181q0 109 67 179t168 70q96 0 152 -75v54q0 12 8.5 17t22.5 0l69 -18q15 -4 15 -17v-3zM286 23q48 0 87.5 38.5t39.5 105.5v151q0 50 -43.5 95t-101.5 45q-65 0 -106 -51.5t-42 -135.5q-2 -104 45 -175.5t121 -72.5z" />
    <glyph glyph-name="atilde" unicode="&#xe3;" horiz-adv-x="578" 
d="M129 596q-13 0 -10 17q8 42 32.5 68.5t64.5 26.5q34 0 84 -28.5t69 -28.5q35 0 51 34q5 13 16 13h7q15 0 10 -17q-23 -93 -96 -93q-31 0 -80 29t-72 29q-33 0 -51 -35q-8 -15 -16 -15h-9zM536 448q0 -6 -9.5 -13t-19 -18.5t-9.5 -28.5v-318q0 -20 18.5 -35t18.5 -21v-3
q0 -11 -14 -11h-85q-16 0 -16 16v56q-24 -40 -65.5 -61t-89.5 -21q-95 0 -163 70t-68 181q0 109 67 179t168 70q96 0 152 -75v54q0 12 8.5 17t22.5 0l69 -18q15 -4 15 -17v-3zM286 23q48 0 87.5 38.5t39.5 105.5v151q0 50 -43.5 95t-101.5 45q-65 0 -106 -51.5t-42 -135.5
q-2 -104 45 -175.5t121 -72.5z" />
    <glyph glyph-name="adieresis" unicode="&#xe4;" horiz-adv-x="578" 
d="M199 577q-28 0 -45.5 16t-17.5 42t17.5 42t45.5 16q27 0 43.5 -16t16.5 -42t-16.5 -42t-43.5 -16zM389 577q-28 0 -44.5 16t-16.5 42t16.5 42t44.5 16q27 0 44 -16t17 -42t-17 -42t-44 -16zM536 448q0 -6 -9.5 -13t-19 -18.5t-9.5 -28.5v-318q0 -20 18.5 -35t18.5 -21v-3
q0 -11 -14 -11h-85q-16 0 -16 16v56q-24 -40 -65.5 -61t-89.5 -21q-95 0 -163 70t-68 181q0 109 67 179t168 70q96 0 152 -75v54q0 12 8.5 17t22.5 0l69 -18q15 -4 15 -17v-3zM286 23q48 0 87.5 38.5t39.5 105.5v151q0 50 -43.5 95t-101.5 45q-65 0 -106 -51.5t-42 -135.5
q-2 -104 45 -175.5t121 -72.5z" />
    <glyph glyph-name="aring" unicode="&#xe5;" horiz-adv-x="578" 
d="M291 544q-50 0 -83 29t-33 71q0 44 33 73t84 29t84.5 -28.5t33.5 -70.5q0 -45 -33 -74t-86 -29zM292 713q-27 0 -43.5 -18.5t-16.5 -49.5q0 -29 17 -49t43 -20q27 0 44 19t17 50q0 29 -17 48.5t-44 19.5zM536 448q0 -6 -9.5 -13t-19 -18.5t-9.5 -28.5v-318
q0 -20 18.5 -35t18.5 -21v-3q0 -11 -14 -11h-85q-16 0 -16 16v56q-24 -40 -65.5 -61t-89.5 -21q-95 0 -163 70t-68 181q0 109 67 179t168 70q96 0 152 -75v54q0 12 8.5 17t22.5 0l69 -18q15 -4 15 -17v-3zM286 23q48 0 87.5 38.5t39.5 105.5v151q0 50 -43.5 95t-101.5 45
q-65 0 -106 -51.5t-42 -135.5q-2 -104 45 -175.5t121 -72.5z" />
    <glyph glyph-name="ae" unicode="&#xe6;" horiz-adv-x="804" 
d="M748 150q7 12 19 8.5t10 -17.5q-11 -58 -64.5 -103t-137.5 -45q-63 0 -113.5 30t-80.5 83q-10 -50 -51.5 -83t-106.5 -33q-83 0 -134.5 40.5t-51.5 110.5q0 68 50 108t133 40q79 0 124 -40l-2 27q-9 92 -37.5 137t-86.5 45q-35 0 -57 -18t-29.5 -39t-20 -39t-30.5 -18
q-19 0 -29.5 10.5t-10.5 27.5q0 43 53 75.5t124 32.5q118 0 173 -93q67 96 187 96q85 0 136 -46.5t51 -105.5q0 -44 -45 -58l-278 -92q18 -62 61.5 -98t103.5 -36q93 0 141 93zM562 460q-58 0 -95 -51.5t-37 -129.5q0 -31 4 -54l222 79q24 10 24 37q0 38 -34.5 78.5
t-83.5 40.5zM245 23q49 0 79.5 36.5t29.5 81.5l-3 34q-7 36 -37 58.5t-74 22.5q-51 0 -82.5 -27t-31.5 -70q0 -59 33 -97.5t86 -38.5z" />
    <glyph glyph-name="ccedilla" unicode="&#xe7;" horiz-adv-x="502" 
d="M446 147q6 12 19 9t10 -17q-12 -59 -61.5 -103t-127.5 -46l-3 -46q46 0 76.5 -19t30.5 -54q0 -34 -32.5 -54.5t-81.5 -20.5q-46 0 -82 20q-15 8 -8 27q5 15 16 8q27 -17 61 -17q25 0 42 10t16 30q-1 37 -63 37q-28 0 -23 30l10 51q-93 12 -154.5 82.5t-61.5 168.5
q0 110 70.5 178t175.5 69q78 1 136.5 -39.5t58.5 -84.5q0 -36 -40 -35q-19 1 -35.5 20.5t-29 43t-40 43.5t-66.5 20q-62 0 -102 -50.5t-40 -125.5q0 -104 53 -166.5t137 -62.5q49 0 84.5 26.5t54.5 67.5z" />
    <glyph glyph-name="egrave" unicode="&#xe8;" horiz-adv-x="497" 
d="M155 640q-26 8 -14 32l16 32q13 24 36 7l176 -126q13 -11 6 -24q-8 -13 -26 -7zM442 141q7 11 19 8.5t11 -16.5q-12 -54 -63 -98.5t-135 -44.5q-105 0 -172.5 70.5t-67.5 183.5q0 108 67 176.5t172 69.5q77 1 126.5 -34.5t49.5 -98.5q0 -51 -43 -90.5t-114 -53.5
q-70 -13 -169 -5q17 -71 63 -112.5t111 -41.5q54 0 91 24t54 63zM258 456q-63 0 -103 -51t-40 -125q0 -12 2 -36q98 -7 158 6q90 19 89 107q-1 44 -30.5 71.5t-75.5 27.5z" />
    <glyph glyph-name="eacute" unicode="&#xe9;" horiz-adv-x="497" 
d="M178 557q-17 -5 -25 7q-8 13 5 24l176 126q23 17 37 -7l15 -32q5 -10 1.5 -19t-15.5 -13zM442 141q7 11 19 8.5t11 -16.5q-12 -54 -63 -98.5t-135 -44.5q-105 0 -172.5 70.5t-67.5 183.5q0 108 67 176.5t172 69.5q77 1 126.5 -34.5t49.5 -98.5q0 -51 -43 -90.5
t-114 -53.5q-70 -13 -169 -5q17 -71 63 -112.5t111 -41.5q54 0 91 24t54 63zM258 456q-63 0 -103 -51t-40 -125q0 -12 2 -36q98 -7 158 6q90 19 89 107q-1 44 -30.5 71.5t-75.5 27.5z" />
    <glyph glyph-name="ecircumflex" unicode="&#xea;" horiz-adv-x="497" 
d="M133 557q-14 -8 -25.5 3.5t3.5 25.5l110 101q13 13 30 13h18q15 0 31 -13l115 -101q15 -14 5 -26.5t-29 -2.5l-133 77zM442 141q7 11 19 8.5t11 -16.5q-12 -54 -63 -98.5t-135 -44.5q-105 0 -172.5 70.5t-67.5 183.5q0 108 67 176.5t172 69.5q77 1 126.5 -34.5
t49.5 -98.5q0 -51 -43 -90.5t-114 -53.5q-70 -13 -169 -5q17 -71 63 -112.5t111 -41.5q54 0 91 24t54 63zM258 456q-63 0 -103 -51t-40 -125q0 -12 2 -36q98 -7 158 6q90 19 89 107q-1 44 -30.5 71.5t-75.5 27.5z" />
    <glyph glyph-name="edieresis" unicode="&#xeb;" horiz-adv-x="497" 
d="M169 577q-28 0 -45.5 16t-17.5 42t17.5 42t45.5 16q27 0 43.5 -16t16.5 -42t-16.5 -42t-43.5 -16zM359 577q-28 0 -44.5 16t-16.5 42t16.5 42t44.5 16q27 0 44 -16t17 -42t-17 -42t-44 -16zM442 141q7 11 19 8.5t11 -16.5q-12 -54 -63 -98.5t-135 -44.5
q-105 0 -172.5 70.5t-67.5 183.5q0 108 67 176.5t172 69.5q77 1 126.5 -34.5t49.5 -98.5q0 -51 -43 -90.5t-114 -53.5q-70 -13 -169 -5q17 -71 63 -112.5t111 -41.5q54 0 91 24t54 63zM258 456q-63 0 -103 -51t-40 -125q0 -12 2 -36q98 -7 158 6q90 19 89 107
q-1 44 -30.5 71.5t-75.5 27.5z" />
    <glyph glyph-name="igrave" unicode="&#xec;" horiz-adv-x="243" 
d="M214 554l-194 86q-24 8 -14 32l17 32q12 25 36 7l176 -126q13 -11 5 -24t-26 -7zM62 0q-19 0 -19 13v4q0 7 9 13.5t18 16t9 24.5v298q0 23 -18 40t-18 22v2q0 7 15 15l77 38q16 6 23.5 2t7.5 -16v-401q0 -12 6 -20.5t14 -12.5t14 -9.5t6 -11.5v-4q0 -13 -21 -13h-123z
" />
    <glyph glyph-name="iacute" unicode="&#xed;" horiz-adv-x="243" 
d="M44 557q-17 -6 -25 7q-7 12 5 24l177 126q22 17 36 -7l15 -32q6 -10 2 -19t-15 -13zM62 0q-19 0 -19 13v4q0 7 9 13.5t18 16t9 24.5v298q0 23 -18 40t-18 22v2q0 7 15 15l77 38q16 6 23.5 2t7.5 -16v-401q0 -12 6 -20.5t14 -12.5t14 -9.5t6 -11.5v-4q0 -13 -21 -13h-123z
" />
    <glyph glyph-name="icircumflex" unicode="&#xee;" horiz-adv-x="243" 
d="M280 586q15 -14 5 -26.5t-28 -2.5l-133 78l-126 -78q-14 -8 -25.5 3.5t3.5 25.5l110 101q14 13 31 13h18q16 0 30 -13zM166 71q0 -12 6 -20.5t14 -12.5t14 -9.5t6 -11.5v-4q0 -13 -21 -13h-123q-19 0 -19 13v4q0 7 9 13.5t18 16t9 24.5v298q0 23 -18 40t-18 22v2
q0 7 15 15l77 38q16 6 23.5 2t7.5 -16v-401z" />
    <glyph glyph-name="idieresis" unicode="&#xef;" horiz-adv-x="243" 
d="M34 577q-28 0 -45 16t-17 42t17 42t45 16q27 0 43.5 -16t16.5 -42t-16.5 -42t-43.5 -16zM224 577q-27 0 -44 16t-17 42t17 42t44 16t44 -16t17 -42t-17 -42t-44 -16zM62 0q-19 0 -19 13v4q0 7 9 13.5t18 16t9 24.5v298q0 23 -18 40t-18 22v2q0 7 15 15l77 38q16 6 23.5 2
t7.5 -16v-401q0 -12 6 -20.5t14 -12.5t14 -9.5t6 -11.5v-4q0 -13 -21 -13h-123z" />
    <glyph glyph-name="eth" unicode="&#xf0;" horiz-adv-x="568" 
d="M369 613q75 -73 118.5 -169.5t43.5 -204.5q0 -113 -68.5 -181t-175.5 -68q-110 0 -181.5 73.5t-71.5 183.5q0 105 64.5 174t165.5 69q86 0 142 -64q-35 93 -106 164l-132 -45q-12 -6 -17 5l-7 13q-6 14 10 19l112 38q-40 35 -105 76q-11 8 -12 18.5t6 16.5t16 4
q86 -28 163 -91l109 37q13 3 18 -5l6 -14q6 -12 -10 -19zM440 199v18q-10 119 -57 180t-116 61q-65 0 -105 -51t-40 -132q0 -108 51 -180.5t129 -72.5q59 0 98.5 51t39.5 126z" />
    <glyph glyph-name="ntilde" unicode="&#xf1;" horiz-adv-x="574" 
d="M133 596q-14 0 -11 17q8 41 33 68t64 27q35 0 85 -28.5t68 -28.5q36 0 51 34q5 13 17 13h7q13 0 10 -17q-23 -93 -96 -93q-31 0 -81 29t-72 29q-34 0 -51 -35q-7 -15 -16 -15h-8zM514 72q1 -16 10 -26t17.5 -16.5t8.5 -13.5v-4q0 -13 -21 -13h-119q-21 0 -21 13v4
q0 7 18.5 21t17.5 34l-10 200q-4 89 -36.5 134.5t-86.5 45.5q-55 0 -90 -39t-35 -99v-243q0 -12 6.5 -20.5t13.5 -12.5t13.5 -9.5t6.5 -11.5v-4q0 -13 -21 -13h-125q-20 0 -20 13v4q0 8 19.5 21t19.5 33v303q0 19 -10.5 29.5t-21 16.5t-10.5 13v3q0 9 16 15l75 36q14 7 21 2
t7 -17v-73q22 42 63.5 67t92.5 25q78 0 130.5 -55t59.5 -166z" />
    <glyph glyph-name="ograve" unicode="&#xf2;" horiz-adv-x="565" 
d="M368 554l-195 86q-24 8 -14 32l17 32q13 24 36 7l176 -126q13 -11 5 -24t-25 -7zM294 -10q-116 0 -188.5 75.5t-72.5 181.5q0 104 70 173.5t173 69.5q111 0 182.5 -73.5t71.5 -180.5q0 -105 -66 -175.5t-170 -70.5zM306 23q59 0 97.5 50t38.5 133q0 106 -50 178.5
t-126 72.5q-64 0 -104 -49.5t-40 -132.5q0 -100 52 -176t132 -76z" />
    <glyph glyph-name="oacute" unicode="&#xf3;" horiz-adv-x="565" 
d="M198 557q-18 -5 -26 7q-7 12 5 24l177 126q23 18 36 -7l16 -32q12 -23 -14 -32zM294 -10q-116 0 -188.5 75.5t-72.5 181.5q0 104 70 173.5t173 69.5q111 0 182.5 -73.5t71.5 -180.5q0 -105 -66 -175.5t-170 -70.5zM306 23q59 0 97.5 50t38.5 133q0 106 -50 178.5
t-126 72.5q-64 0 -104 -49.5t-40 -132.5q0 -100 52 -176t132 -76z" />
    <glyph glyph-name="ocircumflex" unicode="&#xf4;" horiz-adv-x="565" 
d="M152 557q-14 -8 -25.5 3.5t2.5 25.5l110 101q14 13 31 13h18q16 0 30 -13l115 -101q15 -14 5.5 -26.5t-28.5 -2.5l-133 78zM276 490q111 0 182.5 -73.5t71.5 -180.5q0 -105 -66 -175.5t-170 -70.5q-116 0 -188.5 75.5t-72.5 181.5q0 104 70 173.5t173 69.5zM306 23
q59 0 97.5 50t38.5 133q0 106 -50 178.5t-126 72.5q-64 0 -104 -49.5t-40 -132.5q0 -100 52 -176t132 -76z" />
    <glyph glyph-name="otilde" unicode="&#xf5;" horiz-adv-x="565" 
d="M204 708q35 0 85 -28.5t68 -28.5q36 0 51 34q5 13 17 13h7q13 0 10 -17q-23 -93 -96 -93q-32 0 -81 29t-72 29q-33 0 -51 -35q-7 -15 -16 -15h-8q-14 0 -11 17q8 41 33 68t64 27zM294 -10q-116 0 -188.5 75.5t-72.5 181.5q0 104 70 173.5t173 69.5q111 0 182.5 -73.5
t71.5 -180.5q0 -105 -66 -175.5t-170 -70.5zM306 23q59 0 97.5 50t38.5 133q0 106 -50 178.5t-126 72.5q-64 0 -104 -49.5t-40 -132.5q0 -100 52 -176t132 -76z" />
    <glyph glyph-name="odieresis" unicode="&#xf6;" horiz-adv-x="565" 
d="M187 577q-28 0 -45 16t-17 42t17 42t45 16q27 0 43.5 -16t16.5 -42t-16.5 -42t-43.5 -16zM378 577q-28 0 -45 16t-17 42t17 42t45 16q26 0 43.5 -16.5t17.5 -41.5t-17.5 -41.5t-43.5 -16.5zM294 -10q-116 0 -188.5 75.5t-72.5 181.5q0 104 70 173.5t173 69.5
q111 0 182.5 -73.5t71.5 -180.5q0 -105 -66 -175.5t-170 -70.5zM306 23q59 0 97.5 50t38.5 133q0 106 -50 178.5t-126 72.5q-64 0 -104 -49.5t-40 -132.5q0 -100 52 -176t132 -76z" />
    <glyph glyph-name="divide" unicode="&#xf7;" 
d="M301 409q-30 0 -47.5 17t-17.5 44t17.5 44.5t47.5 17.5q28 0 45.5 -17.5t17.5 -44.5t-17.5 -44t-45.5 -17zM114 241q-14 0 -14 11v37q0 11 14 11h372q15 0 15 -11v-37q0 -11 -15 -11h-372zM301 -10q-30 0 -47.5 17t-17.5 44t17.5 44.5t47.5 17.5q28 0 45.5 -17.5
t17.5 -44.5t-17.5 -44t-45.5 -17z" />
    <glyph glyph-name="oslash" unicode="&#xf8;" horiz-adv-x="574" 
d="M537 470q8 -8 -2 -20l-55 -53q55 -69 55 -161q0 -105 -66 -175.5t-170 -70.5t-177 65l-60 -58q-8 -7 -15 0l-14 13q-8 8 3 18l58 56q-56 70 -56 163q0 104 70 173.5t173 69.5q101 0 170 -63l54 52q11 11 21 2zM126 275q0 -71 28 -133l246 236q-50 79 -130 79
q-64 0 -104 -49.5t-40 -132.5zM446 206q0 76 -26 134l-245 -235q54 -82 136 -82q59 0 97 50t38 133z" />
    <glyph glyph-name="ugrave" unicode="&#xf9;" horiz-adv-x="565" 
d="M173 640q-25 8 -13 32l16 32q13 24 36 7l176 -126q13 -11 5 -24q-7 -12 -25 -7zM486 86q0 -25 9 -38t19 -14.5t19 -5.5t9 -13q0 -21 -62 -21q-76 0 -73 74l-2 6q-46 -84 -154 -84q-84 0 -134.5 59.5t-50.5 168.5v177q0 22 -18.5 37t-18.5 21v3q0 12 15 15l84 15
q27 5 27 -12l-1 -263q0 -87 30.5 -134.5t87.5 -47.5q54 0 90.5 42t36.5 110v214q0 21 -19.5 36t-19.5 22v3q0 12 15 15l85 15q26 5 26 -12v-388z" />
    <glyph glyph-name="uacute" unicode="&#xfa;" horiz-adv-x="565" 
d="M197 557q-18 -5 -26 7q-7 13 6 24l176 126q23 17 36 -7l16 -32q5 -10 1.5 -19t-15.5 -13zM486 86q0 -25 9 -38t19 -14.5t19 -5.5t9 -13q0 -21 -62 -21q-76 0 -73 74l-2 6q-46 -84 -154 -84q-84 0 -134.5 59.5t-50.5 168.5v177q0 22 -18.5 37t-18.5 21v3q0 12 15 15l84 15
q27 5 27 -12l-1 -263q0 -87 30.5 -134.5t87.5 -47.5q54 0 90.5 42t36.5 110v214q0 21 -19.5 36t-19.5 22v3q0 12 15 15l85 15q26 5 26 -12v-388z" />
    <glyph glyph-name="ucircumflex" unicode="&#xfb;" horiz-adv-x="565" 
d="M152 557q-15 -8 -26 3.5t4 25.5l110 101q13 13 30 13h18q15 0 31 -13l114 -101q15 -14 5.5 -26.5t-28.5 -2.5l-133 78zM486 86q0 -25 9 -38t19 -14.5t19 -5.5t9 -13q0 -21 -62 -21q-76 0 -73 74l-2 6q-46 -84 -154 -84q-84 0 -134.5 59.5t-50.5 168.5v177q0 22 -18.5 37
t-18.5 21v3q0 12 15 15l84 15q27 5 27 -12l-1 -263q0 -87 30.5 -134.5t87.5 -47.5q54 0 90.5 42t36.5 110v214q0 21 -19.5 36t-19.5 22v3q0 12 15 15l85 15q26 5 26 -12v-388z" />
    <glyph glyph-name="udieresis" unicode="&#xfc;" horiz-adv-x="565" 
d="M187 577q-27 0 -44.5 16.5t-17.5 41.5t17.5 41.5t44.5 16.5t43.5 -16t16.5 -42t-16.5 -42t-43.5 -16zM378 577q-28 0 -44.5 16t-16.5 42t16.5 42t44.5 16q26 0 43.5 -16.5t17.5 -41.5t-17.5 -41.5t-43.5 -16.5zM486 86q0 -25 9 -38t19 -14.5t19 -5.5t9 -13q0 -21 -62 -21
q-76 0 -73 74l-2 6q-46 -84 -154 -84q-84 0 -134.5 59.5t-50.5 168.5v177q0 22 -18.5 37t-18.5 21v3q0 12 15 15l84 15q27 5 27 -12l-1 -263q0 -87 30.5 -134.5t87.5 -47.5q54 0 90.5 42t36.5 110v214q0 21 -19.5 36t-19.5 22v3q0 12 15 15l85 15q26 5 26 -12v-388z" />
    <glyph glyph-name="yacute" unicode="&#xfd;" horiz-adv-x="545" 
d="M196 557q-18 -5 -26 7q-7 12 5 24l177 126q23 17 36 -7l16 -32q5 -10 1.5 -19t-15.5 -13zM457 488q27 4 27 -14v-431q0 -119 -62 -182t-165 -63q-89 0 -145.5 46.5t-56.5 99.5q0 16 11 26.5t29 10.5q16 0 27 -15.5t19.5 -37.5t21.5 -44t40.5 -38t67.5 -16q125 0 125 203
v41q-47 -74 -147 -74q-81 0 -132 60t-51 158v177q0 22 -18.5 37t-18.5 21v3q0 12 15 15l84 15q27 5 27 -12l-1 -263q0 -80 30.5 -126t84.5 -46t90.5 41.5t36.5 106.5v208q0 21 -19 36t-19 22v3q0 12 14 15z" />
    <glyph glyph-name="thorn" unicode="&#xfe;" horiz-adv-x="562" 
d="M296 490q96 0 163.5 -68t67.5 -174q0 -110 -66.5 -184t-163.5 -74q-91 0 -146 69v-215q0 -20 20 -34t20 -22v-3q0 -13 -20 -13h-124q-20 0 -20 13v3q0 8 18.5 22t18.5 34v788q0 19 -20 33t-20 22v4q0 11 16 17l82 39q30 16 30 -14v-308q51 65 144 65zM285 23
q71 0 112.5 54.5t41.5 146.5q0 102 -46 168t-119 66q-45 0 -81.5 -33t-40.5 -81l-1 -178q4 -58 45 -100.5t89 -42.5z" />
    <glyph glyph-name="ydieresis" unicode="&#xff;" horiz-adv-x="545" 
d="M186 577q-28 0 -45 16t-17 42t17 42t45 16q27 0 43.5 -16t16.5 -42t-16.5 -42t-43.5 -16zM377 577q-28 0 -45 16t-17 42t17 42t45 16q26 0 43 -16.5t17 -41.5t-17 -41.5t-43 -16.5zM457 488q27 4 27 -14v-431q0 -119 -62 -182t-165 -63q-89 0 -145.5 46.5t-56.5 99.5
q0 16 11 26.5t29 10.5q16 0 27 -15.5t19.5 -37.5t21.5 -44t40.5 -38t67.5 -16q125 0 125 203v41q-47 -74 -147 -74q-81 0 -132 60t-51 158v177q0 22 -18.5 37t-18.5 21v3q0 12 15 15l84 15q27 5 27 -12l-1 -263q0 -80 30.5 -126t84.5 -46t90.5 41.5t36.5 106.5v208
q0 21 -19 36t-19 22v3q0 12 14 15z" />
    <glyph glyph-name="Amacron" unicode="&#x100;" horiz-adv-x="672" 
d="M203 811q-17 0 -17 15v28q0 15 17 15h263q18 0 18 -15v-28q0 -15 -18 -15h-263zM27 0q-20 0 -20 12v2q0 8 19.5 21.5t27.5 34.5l222 567q6 16 -13.5 34.5t-19.5 24.5v2q0 12 17 12h128q16 0 16 -12v-2q0 -7 -11 -15.5t-19 -18.5t-3 -23l247 -569q8 -20 28 -33.5t20 -22.5
v-2q0 -12 -20 -12h-135q-20 0 -20 12v2q0 6 7.5 12t15 10t12 13t-0.5 21l-49 118h-322l-45 -118q-5 -12 -0.5 -21t12 -13t15 -10t7.5 -12v-2q0 -12 -21 -12h-95zM170 231h291l-152 367z" />
    <glyph glyph-name="amacron" unicode="&#x101;" horiz-adv-x="578" 
d="M161 604q-18 0 -18 16v28q0 15 18 15h262q18 0 18 -15v-28q0 -16 -18 -16h-262zM536 448q0 -6 -9.5 -13t-19 -18.5t-9.5 -28.5v-318q0 -20 18.5 -35t18.5 -21v-3q0 -11 -14 -11h-85q-16 0 -16 16v56q-24 -40 -65.5 -61t-89.5 -21q-95 0 -163 70t-68 181q0 109 67 179
t168 70q96 0 152 -75v54q0 12 8.5 17t22.5 0l69 -18q15 -4 15 -17v-3zM286 23q48 0 87.5 38.5t39.5 105.5v151q0 50 -43.5 95t-101.5 45q-65 0 -106 -51.5t-42 -135.5q-2 -104 45 -175.5t121 -72.5z" />
    <glyph glyph-name="Abreve" unicode="&#x102;" horiz-adv-x="672" 
d="M335 777q-61 0 -103.5 35.5t-50.5 86.5q-3 17 13.5 21.5t21.5 -7.5q10 -34 43 -54.5t76 -20.5q42 0 75.5 20.5t44.5 54.5q5 11 21 6.5t14 -20.5q-7 -51 -50 -86.5t-105 -35.5zM27 0q-20 0 -20 12v2q0 8 19.5 21.5t27.5 34.5l222 567q6 16 -13.5 34.5t-19.5 24.5v2
q0 12 17 12h128q16 0 16 -12v-2q0 -7 -11 -15.5t-19 -18.5t-3 -23l247 -569q8 -20 28 -33.5t20 -22.5v-2q0 -12 -20 -12h-135q-20 0 -20 12v2q0 6 7.5 12t15 10t12 13t-0.5 21l-49 118h-322l-45 -118q-5 -12 -0.5 -21t12 -13t15 -10t7.5 -12v-2q0 -12 -21 -12h-95zM170 231
h291l-152 367z" />
    <glyph glyph-name="abreve" unicode="&#x103;" horiz-adv-x="578" 
d="M292 566q-61 0 -103.5 35.5t-50.5 86.5q-3 16 13.5 20.5t21.5 -7.5q10 -33 43.5 -53.5t75.5 -20.5t75.5 20.5t44.5 53.5q5 11 21 7t14 -20q-7 -51 -50 -86.5t-105 -35.5zM536 448q0 -6 -9.5 -13t-19 -18.5t-9.5 -28.5v-318q0 -20 18.5 -35t18.5 -21v-3q0 -11 -14 -11h-85
q-16 0 -16 16v56q-24 -40 -65.5 -61t-89.5 -21q-95 0 -163 70t-68 181q0 109 67 179t168 70q96 0 152 -75v54q0 12 8.5 17t22.5 0l69 -18q15 -4 15 -17v-3zM286 23q48 0 87.5 38.5t39.5 105.5v151q0 50 -43.5 95t-101.5 45q-65 0 -106 -51.5t-42 -135.5q-2 -104 45 -175.5
t121 -72.5z" />
    <glyph glyph-name="Aogonek" unicode="&#x104;" horiz-adv-x="672" 
d="M618 70q8 -20 28 -33.5t20 -22.5v-2q0 -12 -20 -12h-36q-70 -65 -70 -122q0 -24 11 -36.5t29 -12.5q10 0 27 5q14 6 18 -10q3 -19 -11 -26q-17 -11 -47 -11q-38 0 -65.5 20.5t-27.5 58.5q0 35 28 70.5t72 63.5h-63q-20 0 -20 12v2q0 6 7.5 12t15 10t12 13t-0.5 21
l-49 118h-322l-45 -118q-5 -12 -0.5 -21t12 -13t15 -10t7.5 -12v-2q0 -12 -21 -12h-95q-20 0 -20 12v2q0 8 19.5 21.5t27.5 34.5l222 567q6 16 -13.5 34.5t-19.5 24.5v2q0 12 17 12h128q16 0 16 -12v-2q0 -7 -11 -15.5t-19 -18.5t-3 -23zM170 231h291l-152 367z" />
    <glyph glyph-name="aogonek" unicode="&#x105;" horiz-adv-x="578" 
d="M536 448q0 -6 -9.5 -13t-19 -18.5t-9.5 -28.5v-318q0 -20 18.5 -35t18.5 -21v-3q0 -11 -14 -11h-35q-61 -63 -61 -114q0 -23 11 -36t28 -13q7 0 27 6q16 6 19 -12t-11 -25q-20 -10 -48 -10q-37 0 -64.5 20.5t-27.5 57.5q0 33 24 66t63 60h-10q-16 0 -16 16v56
q-24 -40 -65.5 -61t-89.5 -21q-95 0 -163 70t-68 181q0 109 67 179t168 70q96 0 152 -75v54q0 12 8.5 17t22.5 0l69 -18q15 -4 15 -17v-3zM286 23q48 0 87.5 38.5t39.5 105.5v151q0 50 -43.5 95t-101.5 45q-65 0 -106 -51.5t-42 -135.5q-2 -104 45 -175.5t121 -72.5z" />
    <glyph glyph-name="Cacute" unicode="&#x106;" horiz-adv-x="678" 
d="M265 782q-19 -2 -24 12t10 22l198 88q26 12 34 -15l9 -34q3 -11 -2.5 -19t-17.5 -9zM370 -10q-133 0 -235 112t-102 260q0 157 93.5 257t238.5 100q110 0 191.5 -62.5t81.5 -122.5q0 -20 -11.5 -31.5t-32.5 -11.5q-20 0 -36.5 19.5t-32.5 46.5t-36.5 54.5t-58 47
t-88.5 19.5q-90 0 -154.5 -75t-64.5 -191q0 -147 81.5 -244.5t190.5 -97.5q81 0 136.5 49t83.5 117q9 16 25 12t12 -25q-18 -97 -91.5 -165t-190.5 -68z" />
    <glyph glyph-name="cacute" unicode="&#x107;" horiz-adv-x="502" 
d="M180 557q-18 -5 -26 7q-7 13 6 24l176 126q23 17 37 -7l15 -32q5 -10 1.5 -19t-15.5 -13zM279 -10q-105 0 -177.5 72.5t-72.5 180.5q0 110 70.5 178t175.5 69q78 1 136.5 -39.5t58.5 -84.5q0 -36 -40 -35q-19 1 -35.5 20.5t-29 43t-40 43.5t-66.5 20q-62 0 -102 -50.5
t-40 -125.5q0 -104 53 -166.5t137 -62.5q49 0 84.5 26.5t54.5 67.5q6 12 19 9t10 -17q-12 -61 -63.5 -105t-132.5 -44z" />
    <glyph glyph-name="Cdotaccent" unicode="&#x10a;" horiz-adv-x="678" 
d="M352 776q-30 0 -47.5 16.5t-17.5 43.5t17.5 44t47.5 17q28 0 45 -17t17 -44t-17 -43.5t-45 -16.5zM370 -10q-133 0 -235 112t-102 260q0 157 93.5 257t238.5 100q110 0 191.5 -62.5t81.5 -122.5q0 -20 -11.5 -31.5t-32.5 -11.5q-20 0 -36.5 19.5t-32.5 46.5t-36.5 54.5
t-58 47t-88.5 19.5q-90 0 -154.5 -75t-64.5 -191q0 -147 81.5 -244.5t190.5 -97.5q81 0 136.5 49t83.5 117q9 16 25 12t12 -25q-18 -97 -91.5 -165t-190.5 -68z" />
    <glyph glyph-name="cdotaccent" unicode="&#x10b;" horiz-adv-x="502" 
d="M264 575q-31 0 -49.5 17t-18.5 45t18.5 45.5t49.5 17.5q29 0 47 -17.5t18 -45.5t-18 -45t-47 -17zM279 -10q-105 0 -177.5 72.5t-72.5 180.5q0 110 70.5 178t175.5 69q78 1 136.5 -39.5t58.5 -84.5q0 -36 -40 -35q-19 1 -35.5 20.5t-29 43t-40 43.5t-66.5 20
q-62 0 -102 -50.5t-40 -125.5q0 -104 53 -166.5t137 -62.5q49 0 84.5 26.5t54.5 67.5q6 12 19 9t10 -17q-12 -61 -63.5 -105t-132.5 -44z" />
    <glyph glyph-name="Ccaron" unicode="&#x10c;" horiz-adv-x="678" 
d="M334 761l-114 106q-7 7 -3.5 15t12 10.5t16.5 -1.5l131 -84l131 84q9 5 18 1.5t11 -11t-4 -14.5l-117 -106q-14 -13 -30 -13h-21q-16 0 -30 13zM615 236q9 16 25 12t12 -25q-18 -97 -91.5 -165t-190.5 -68q-133 0 -235 112t-102 260q0 157 93.5 257t238.5 100
q110 0 191.5 -62.5t81.5 -122.5q0 -20 -11.5 -31.5t-32.5 -11.5q-20 0 -36.5 19.5t-32.5 46.5t-36.5 54.5t-58 47t-88.5 19.5q-90 0 -154.5 -75t-64.5 -191q0 -147 81.5 -244.5t190.5 -97.5q81 0 136.5 49t83.5 117z" />
    <glyph glyph-name="ccaron" unicode="&#x10d;" horiz-adv-x="502" 
d="M222 569l-114 109q-7 7 -3.5 15t12 10.5t16.5 -1.5l131 -87l131 87q8 6 17.5 2t11.5 -11.5t-4 -14.5l-117 -109q-14 -14 -30 -14h-21q-16 0 -30 14zM446 147q6 12 19 9t10 -17q-12 -61 -63.5 -105t-132.5 -44q-105 0 -177.5 72.5t-72.5 180.5q0 110 70.5 178t175.5 69
q78 1 136.5 -39.5t58.5 -84.5q0 -36 -40 -35q-19 1 -35.5 20.5t-29 43t-40 43.5t-66.5 20q-62 0 -102 -50.5t-40 -125.5q0 -104 53 -166.5t137 -62.5q49 0 84.5 26.5t54.5 67.5z" />
    <glyph glyph-name="Dcaron" unicode="&#x10e;" horiz-adv-x="742" 
d="M196 867q-8 7 -4.5 15t12 10.5t17.5 -1.5l131 -84l131 84q9 5 18 1.5t11 -11t-4 -14.5l-117 -106q-14 -13 -30 -13h-21q-16 0 -30 13zM299 710q169 0 286.5 -97.5t117.5 -251.5q0 -165 -104.5 -263t-263.5 -98h-255q-21 0 -21 12v2q0 8 18.5 22.5t18.5 33.5v570
q0 20 -18.5 34.5t-18.5 21.5v2q0 12 21 12h219zM329 41q120 0 200.5 77.5t80.5 210.5q0 151 -97.5 245.5t-229.5 94.5h-70q-28 0 -28 -32v-541q0 -26 12.5 -40.5t34.5 -14.5h97z" />
    <glyph glyph-name="dcaron" unicode="&#x10f;" horiz-adv-x="586" 
d="M645 802q17 0 17 -20q0 -134 -95 -217q-15 -13 -26 -4l-5 4q-10 9 1 26q59 80 59 191q0 20 16 20h33zM498 70q0 -20 18.5 -35t18.5 -21v-3q0 -11 -15 -11h-84q-15 0 -17 16l-2 50q-25 -37 -65.5 -56.5t-86.5 -19.5q-95 0 -163 70t-68 181q0 109 67 179t167 70
q88 0 145 -65v218q0 18 -10.5 29t-21 17t-10.5 13v2q0 10 15 17l81 27q31 12 31 -15v-663zM286 23q48 0 87.5 38.5t39.5 105.5h1l-1 51v100q0 51 -43.5 95.5t-102.5 44.5q-65 0 -105.5 -51.5t-41.5 -135.5q-2 -104 45 -175.5t121 -72.5z" />
    <glyph glyph-name="Dcroat" unicode="&#x110;" horiz-adv-x="745" 
d="M302 710q169 0 286.5 -97.5t117.5 -251.5q0 -165 -104.5 -263t-263.5 -98h-255q-21 0 -21 12v2q0 8 18.5 22.5t18.5 33.5v269h-55q-15 0 -15 12v16q0 12 15 12h55v261q0 20 -18.5 34.5t-18.5 21.5v2q0 12 21 12h219zM332 41q120 0 200.5 77.5t80.5 210.5
q0 151 -97.5 245.5t-229.5 94.5h-70q-28 0 -28 -32v-258h139q15 0 15 -12v-15q0 -13 -15 -13h-139v-243q0 -26 12.5 -40.5t34.5 -14.5h97z" />
    <glyph glyph-name="dcroat" unicode="&#x111;" horiz-adv-x="568" 
d="M559 585q15 0 15 -12v-15q0 -13 -15 -13h-61v-475q0 -20 18.5 -35t18.5 -21v-3q0 -11 -15 -11h-84q-15 0 -17 16l-2 50q-25 -37 -65.5 -56.5t-86.5 -19.5q-95 0 -163 70t-68 181q0 109 67 179t167 70q88 0 145 -65v120h-138q-14 0 -14 12v16q0 12 14 12h138v58
q0 18 -10.5 29t-21 17t-10.5 13v2q0 10 15 17l81 27q31 12 31 -15v-148h61zM286 23q48 0 87.5 38.5t39.5 105.5h1l-1 51v100q0 51 -43.5 95.5t-102.5 44.5q-65 0 -105.5 -51.5t-41.5 -135.5q-2 -104 45 -175.5t121 -72.5z" />
    <glyph glyph-name="Emacron" unicode="&#x112;" 
d="M169 811q-17 0 -17 15v28q0 15 17 15h263q18 0 18 -15v-28q0 -15 -18 -15h-263zM80 0q-21 0 -21 12v2q0 7 18.5 21.5t18.5 35.5v568q0 16 -9 26.5t-18.5 17t-9.5 13.5v3q0 11 18 11h424q20 0 25 -22l24 -99q4 -20 -12 -20h-5q-10 0 -22.5 15.5t-23 34.5t-27 34.5
t-34.5 15.5h-212q-28 0 -28 -34v-251h182q13 0 22 9t13.5 20.5t10 20.5t12.5 9h4q13 0 13 -17v-123q0 -17 -13 -17h-4q-7 0 -12.5 9t-10 19.5t-13.5 19.5t-22 9h-182l-1 -259q0 -18 9.5 -30.5t27.5 -12.5h235q18 0 34 16t25.5 35.5t22 35.5t23.5 16h6q7 0 10.5 -6t1.5 -14
l-24 -101q-5 -23 -26 -23h-450z" />
    <glyph glyph-name="emacron" unicode="&#x113;" horiz-adv-x="497" 
d="M130 604q-17 0 -17 16v28q0 15 17 15h263q18 0 18 -15v-28q0 -16 -18 -16h-263zM442 141q7 11 19 8.5t11 -16.5q-12 -54 -63 -98.5t-135 -44.5q-105 0 -172.5 70.5t-67.5 183.5q0 108 67 176.5t172 69.5q77 1 126.5 -34.5t49.5 -98.5q0 -51 -43 -90.5t-114 -53.5
q-70 -13 -169 -5q17 -71 63 -112.5t111 -41.5q54 0 91 24t54 63zM258 456q-63 0 -103 -51t-40 -125q0 -12 2 -36q98 -7 158 6q90 19 89 107q-1 44 -30.5 71.5t-75.5 27.5z" />
    <glyph glyph-name="Edotaccent" unicode="&#x116;" 
d="M305 776q-29 0 -47 16.5t-18 43.5t18 44t47 17q28 0 45.5 -17t17.5 -44t-17.5 -43.5t-45.5 -16.5zM80 0q-21 0 -21 12v2q0 7 18.5 21.5t18.5 35.5v568q0 16 -9 26.5t-18.5 17t-9.5 13.5v3q0 11 18 11h424q20 0 25 -22l24 -99q4 -20 -12 -20h-5q-10 0 -22.5 15.5t-23 34.5
t-27 34.5t-34.5 15.5h-212q-28 0 -28 -34v-251h182q13 0 22 9t13.5 20.5t10 20.5t12.5 9h4q13 0 13 -17v-123q0 -17 -13 -17h-4q-7 0 -12.5 9t-10 19.5t-13.5 19.5t-22 9h-182l-1 -259q0 -18 9.5 -30.5t27.5 -12.5h235q18 0 34 16t25.5 35.5t22 35.5t23.5 16h6q7 0 10.5 -6
t1.5 -14l-24 -101q-5 -23 -26 -23h-450z" />
    <glyph glyph-name="edotaccent" unicode="&#x117;" horiz-adv-x="497" 
d="M263 575q-31 0 -49.5 17t-18.5 45t18.5 45.5t49.5 17.5q29 0 47 -17.5t18 -45.5t-18 -45t-47 -17zM442 141q7 11 19 8.5t11 -16.5q-12 -54 -63 -98.5t-135 -44.5q-105 0 -172.5 70.5t-67.5 183.5q0 108 67 176.5t172 69.5q77 1 126.5 -34.5t49.5 -98.5q0 -51 -43 -90.5
t-114 -53.5q-70 -13 -169 -5q17 -71 63 -112.5t111 -41.5q54 0 91 24t54 63zM258 456q-63 0 -103 -51t-40 -125q0 -12 2 -36q98 -7 158 6q90 19 89 107q-1 44 -30.5 71.5t-75.5 27.5z" />
    <glyph glyph-name="Eogonek" unicode="&#x118;" 
d="M544 3q-70 -65 -70 -122q0 -24 11 -36.5t29 -12.5q12 0 27 6t18 -12q4 -19 -11 -25q-17 -11 -47 -11q-38 0 -65.5 21t-27.5 58q0 34 26.5 68.5t69.5 62.5h-424q-21 0 -21 12v2q0 7 18.5 21.5t18.5 35.5v568q0 16 -9 26.5t-18.5 17t-9.5 13.5v3q0 11 18 11h424
q20 0 25 -22l24 -99q4 -20 -12 -20h-5q-10 0 -22.5 15.5t-23 34.5t-27 34.5t-34.5 15.5h-212q-28 0 -28 -34v-251h182q13 0 22 9t13.5 20.5t10 20.5t12.5 9h4q13 0 13 -17v-123q0 -17 -13 -17h-4q-7 0 -12.5 9t-10 19.5t-13.5 19.5t-22 9h-182l-1 -259q0 -18 9.5 -30.5
t27.5 -12.5h235q18 0 34 16t25.5 35.5t22 35.5t23.5 16h6q7 0 10.5 -6t1.5 -14l-24 -101q-3 -15 -12 -20z" />
    <glyph glyph-name="eogonek" unicode="&#x119;" horiz-adv-x="497" 
d="M442 141q7 11 19 8.5t11 -16.5q-8 -34 -32.5 -67.5t-65.5 -53.5q-64 -64 -64 -117q0 -23 11 -36t29 -13q12 0 27 6t18 -12t-10 -25q-17 -10 -48 -10q-37 0 -65 20.5t-28 57.5q0 54 65 109q-22 -2 -35 -2q-105 0 -172.5 70.5t-67.5 183.5q0 108 67 176.5t172 69.5
q77 1 126.5 -34.5t49.5 -98.5q0 -51 -43 -90.5t-114 -53.5q-70 -13 -169 -5q17 -71 63 -112.5t111 -41.5q54 0 91 24t54 63zM258 456q-63 0 -103 -51t-40 -125q0 -12 2 -36q98 -7 158 6q90 19 89 107q-1 44 -30.5 71.5t-75.5 27.5z" />
    <glyph glyph-name="Ecaron" unicode="&#x11a;" 
d="M260 761l-115 106q-7 7 -3.5 15t12 10.5t16.5 -1.5l132 -84l131 84q9 5 18 1.5t11 -11t-4 -14.5l-117 -106q-16 -13 -31 -13h-20q-16 0 -30 13zM568 144q7 0 10.5 -6t1.5 -14l-24 -101q-5 -23 -26 -23h-450q-21 0 -21 12v2q0 7 18.5 21.5t18.5 35.5v568q0 16 -9 26.5
t-18.5 17t-9.5 13.5v3q0 11 18 11h424q20 0 25 -22l24 -99q4 -20 -12 -20h-5q-10 0 -22.5 15.5t-23 34.5t-27 34.5t-34.5 15.5h-212q-28 0 -28 -34v-251h182q13 0 22 9t13.5 20.5t10 20.5t12.5 9h4q13 0 13 -17v-123q0 -17 -13 -17h-4q-7 0 -12.5 9t-10 19.5t-13.5 19.5
t-22 9h-182l-1 -259q0 -18 9.5 -30.5t27.5 -12.5h235q18 0 34 16t25.5 35.5t22 35.5t23.5 16h6z" />
    <glyph glyph-name="ecaron" unicode="&#x11b;" horiz-adv-x="497" 
d="M107 678q-8 7 -4.5 15t12 10.5t16.5 -1.5l132 -87l131 87q8 6 17.5 2t11.5 -11.5t-4 -14.5l-117 -109q-15 -14 -30 -14h-21q-16 0 -30 14zM442 141q7 11 19 8.5t11 -16.5q-12 -54 -63 -98.5t-135 -44.5q-105 0 -172.5 70.5t-67.5 183.5q0 108 67 176.5t172 69.5
q77 1 126.5 -34.5t49.5 -98.5q0 -51 -43 -90.5t-114 -53.5q-70 -13 -169 -5q17 -71 63 -112.5t111 -41.5q54 0 91 24t54 63zM258 456q-63 0 -103 -51t-40 -125q0 -12 2 -36q98 -7 158 6q90 19 89 107q-1 44 -30.5 71.5t-75.5 27.5z" />
    <glyph glyph-name="Gbreve" unicode="&#x11e;" horiz-adv-x="725" 
d="M381 777q-61 0 -103.5 35.5t-50.5 86.5q-1 11 6.5 17t16.5 5t12 -8q11 -34 44 -54.5t75 -20.5q43 0 76.5 20.5t43.5 54.5q3 7 12.5 8t16.5 -5t6 -17q-7 -51 -49.5 -86.5t-105.5 -35.5zM689 339q20 0 20 -11v-3q0 -7 -14.5 -13.5t-29.5 -17t-15 -27.5v-261q0 -16 -14 -16
t-19 9l-23 64q-37 -34 -94 -53.5t-118 -19.5q-140 0 -242 109t-102 260q0 156 100.5 258t235.5 102q117 0 196.5 -61t79.5 -123q0 -20 -11.5 -31.5t-31.5 -11.5t-37.5 19t-34.5 46.5t-38.5 55t-59.5 46.5t-89 19q-87 0 -152.5 -77.5t-65.5 -188.5q0 -149 84 -252t196 -103
q104 0 155 53v157q0 22 -33.5 36.5t-33.5 22.5v2q0 12 20 12z" />
    <glyph glyph-name="gbreve" unicode="&#x11f;" horiz-adv-x="571" 
d="M284 572q-60 0 -103 35.5t-51 85.5q-1 7 1.5 12t7.5 7.5t10 3t9.5 -2t6.5 -6.5q10 -33 43.5 -53.5t75.5 -20.5t75.5 20.5t44.5 53.5q5 11 21 6.5t14 -20.5q-7 -51 -50 -86t-105 -35zM523 468q15 -4 15 -17v-3q0 -6 -9.5 -13t-19 -18.5t-9.5 -28.5v-339q0 -122 -60 -186.5
t-157 -64.5q-96 0 -155.5 46.5t-59.5 96.5q0 15 10.5 26t29.5 11q18 0 32.5 -23t26 -50.5t43 -51t80.5 -23.5q57 0 91 49.5t34 149.5v43q-25 -34 -65 -53t-84 -19q-95 0 -163.5 68.5t-68.5 172.5q0 109 67 179t168 70q98 0 155 -77l-1 56q0 12 8.5 17t22.5 0zM287 33
q47 0 87.5 38.5t40.5 105.5v141q0 50 -44 95t-102 45q-65 0 -106.5 -51.5t-42.5 -135.5q-2 -98 45.5 -168t121.5 -70z" />
    <glyph glyph-name="Gdotaccent" unicode="&#x120;" horiz-adv-x="725" 
d="M386 776q-30 0 -48 16.5t-18 43.5t18 44t48 17q28 0 45 -17t17 -44t-17 -43.5t-45 -16.5zM689 339q20 0 20 -11v-3q0 -7 -14.5 -13.5t-29.5 -17t-15 -27.5v-261q0 -16 -14 -16t-19 9l-23 64q-37 -34 -94 -53.5t-118 -19.5q-140 0 -242 109t-102 260q0 156 100.5 258
t235.5 102q117 0 196.5 -61t79.5 -123q0 -20 -11.5 -31.5t-31.5 -11.5t-37.5 19t-34.5 46.5t-38.5 55t-59.5 46.5t-89 19q-87 0 -152.5 -77.5t-65.5 -188.5q0 -149 84 -252t196 -103q104 0 155 53v157q0 22 -33.5 36.5t-33.5 22.5v2q0 12 20 12z" />
    <glyph glyph-name="gdotaccent" unicode="&#x121;" horiz-adv-x="571" 
d="M285 581q-30 0 -48.5 17.5t-18.5 45.5q0 27 18.5 44.5t48.5 17.5q29 0 47 -17.5t18 -44.5q0 -28 -18 -45.5t-47 -17.5zM523 468q15 -4 15 -17v-3q0 -6 -9.5 -13t-19 -18.5t-9.5 -28.5v-339q0 -122 -60 -186.5t-157 -64.5q-96 0 -155.5 46.5t-59.5 96.5q0 15 10.5 26
t29.5 11q18 0 32.5 -23t26 -50.5t43 -51t80.5 -23.5q57 0 91 49.5t34 149.5v43q-25 -34 -65 -53t-84 -19q-95 0 -163.5 68.5t-68.5 172.5q0 109 67 179t168 70q98 0 155 -77l-1 56q0 12 8.5 17t22.5 0zM287 33q47 0 87.5 38.5t40.5 105.5v141q0 50 -44 95t-102 45
q-65 0 -106.5 -51.5t-42.5 -135.5q-2 -98 45.5 -168t121.5 -70z" />
    <glyph glyph-name="uni0122" unicode="&#x122;" horiz-adv-x="725" 
d="M689 339q20 0 20 -11v-3q0 -7 -14.5 -13.5t-29.5 -17t-15 -27.5v-261q0 -16 -14 -16t-19 9l-23 64q-37 -34 -94 -53.5t-118 -19.5q-140 0 -242 109t-102 260q0 156 100.5 258t235.5 102q117 0 196.5 -61t79.5 -123q0 -20 -11.5 -31.5t-31.5 -11.5t-37.5 19t-34.5 46.5
t-38.5 55t-59.5 46.5t-89 19q-87 0 -152.5 -77.5t-65.5 -188.5q0 -149 84 -252t196 -103q104 0 155 53v157q0 22 -33.5 36.5t-33.5 22.5v2q0 12 20 12zM396 -60q26 0 43.5 -19t17.5 -51q0 -99 -98 -167q-10 -7 -18.5 2t0.5 18q44 42 53 85q4 14 -8 14q-20 0 -33.5 16
t-13.5 41q0 27 15.5 44t41.5 17z" />
    <glyph glyph-name="uni0123" unicode="&#x123;" horiz-adv-x="571" 
d="M286 565q-26 0 -44 19.5t-18 52.5q0 102 100 170q10 7 18.5 -2t-0.5 -19q-45 -43 -54 -86q-4 -14 8 -14q21 0 34.5 -16.5t13.5 -41.5q0 -27 -16 -45t-42 -18zM523 468q15 -4 15 -17v-3q0 -6 -9.5 -13t-19 -18.5t-9.5 -28.5v-339q0 -122 -60 -186.5t-157 -64.5
q-96 0 -155.5 46.5t-59.5 96.5q0 15 10.5 26t29.5 11q18 0 32.5 -23t26 -50.5t43 -51t80.5 -23.5q57 0 91 49.5t34 149.5v43q-25 -34 -65 -53t-84 -19q-95 0 -163.5 68.5t-68.5 172.5q0 109 67 179t168 70q98 0 155 -77l-1 56q0 12 8.5 17t22.5 0zM287 33q47 0 87.5 38.5
t40.5 105.5v141q0 50 -44 95t-102 45q-65 0 -106.5 -51.5t-42.5 -135.5q-2 -98 45.5 -168t121.5 -70z" />
    <glyph glyph-name="Hbar" unicode="&#x126;" horiz-adv-x="770" 
d="M724 570q17 0 17 -13v-14q0 -13 -17 -13h-53v-460q0 -15 9.5 -25t19 -17t9.5 -14v-2q0 -12 -20 -12h-125q-20 0 -20 12v2q0 7 18 21.5t18 34.5v270h-391l-1 -270q0 -15 10 -25t19.5 -17t9.5 -14v-2q0 -12 -20 -12h-125q-20 0 -20 12v2q0 7 18 21.5t18 34.5v460h-56
q-16 0 -16 13v14q0 13 16 13h56v70q0 20 -18 34.5t-18 21.5v2q0 12 20 12h125q20 0 20 -12v-2q0 -7 -9.5 -14t-19 -17t-9.5 -25v-70h391v70q0 20 -18 34.5t-18 21.5v2q0 12 20 12h125q20 0 20 -12v-2q0 -7 -9.5 -14t-19 -17t-9.5 -25v-70h53zM580 384v146h-391l-1 -146h392z
" />
    <glyph glyph-name="hbar" unicode="&#x127;" horiz-adv-x="568" 
d="M507 72q2 -20 19 -34t17 -22v-4q0 -12 -20 -12h-120q-20 0 -20 12v4q0 7 9.5 14t18.5 16.5t8 24.5l-10 204q-4 86 -37 131t-86 45q-55 0 -90 -39t-35 -99v-243q0 -19 20 -32.5t20 -21.5v-3q0 -13 -21 -13h-125q-19 0 -19 13v3q0 8 18.5 21.5t18.5 32.5v477h-70
q-14 0 -14 12v17q0 11 14 11h70v48q0 17 -9.5 27.5t-19 17t-9.5 12.5v3q0 11 14 17l82 36q13 6 21 2.5t8 -15.5l-1 -148h127q15 0 15 -12v-14q0 -14 -15 -14h-127l-1 -136q51 79 149 79q78 0 130.5 -54.5t58.5 -162.5z" />
    <glyph glyph-name="Itilde" unicode="&#x128;" horiz-adv-x="284" 
d="M74 894q34 0 84 -28.5t69 -28.5q35 0 51 34q5 13 16 13h7q15 0 10 -17q-23 -93 -95 -93q-32 0 -81.5 29t-71.5 29q-33 0 -51 -35q-7 -15 -16 -15h-9q-13 0 -10 17q8 42 32.5 68.5t64.5 26.5zM60 12v2q0 7 18 21t18 34v571q0 20 -18 34.5t-18 21.5v2q0 12 20 12h125
q20 0 20 -12v-2q0 -7 -9.5 -14t-19 -17t-9.5 -25v-571q0 -20 19 -34t19 -21v-2q0 -12 -20 -12h-125q-20 0 -20 12z" />
    <glyph glyph-name="itilde" unicode="&#x129;" horiz-adv-x="243" 
d="M51 708q34 0 84.5 -28.5t68.5 -28.5q36 0 51 34q5 13 17 13h6q14 0 11 -17q-23 -93 -96 -93q-32 0 -81.5 29t-71.5 29q-34 0 -51 -35q-7 -15 -16 -15h-8q-14 0 -11 17q8 41 33 68t64 27zM62 0q-19 0 -19 13v4q0 7 9 13.5t18 16t9 24.5v298q0 23 -18 40t-18 22v2
q0 7 15 15l77 38q16 6 23.5 2t7.5 -16v-401q0 -12 6 -20.5t14 -12.5t14 -9.5t6 -11.5v-4q0 -13 -21 -13h-123z" />
    <glyph glyph-name="Imacron" unicode="&#x12a;" horiz-adv-x="284" 
d="M8 811q-17 0 -17 15v28q0 15 17 15h263q18 0 18 -15v-28q0 -15 -18 -15h-263zM60 12v2q0 7 18 21t18 34v571q0 20 -18 34.5t-18 21.5v2q0 12 20 12h125q20 0 20 -12v-2q0 -7 -9.5 -14t-19 -17t-9.5 -25v-571q0 -20 19 -34t19 -21v-2q0 -12 -20 -12h-125q-20 0 -20 12z
" />
    <glyph glyph-name="imacron" unicode="&#x12b;" horiz-adv-x="243" 
d="M-4 604q-18 0 -18 16v28q0 15 18 15h263q17 0 17 -15v-28q0 -16 -17 -16h-263zM62 0q-19 0 -19 13v4q0 7 9 13.5t18 16t9 24.5v298q0 23 -18 40t-18 22v2q0 7 15 15l77 38q16 6 23.5 2t7.5 -16v-401q0 -12 6 -20.5t14 -12.5t14 -9.5t6 -11.5v-4q0 -13 -21 -13h-123z" />
    <glyph glyph-name="Iogonek" unicode="&#x12e;" horiz-adv-x="284" 
d="M225 696q0 -7 -9.5 -14t-19 -17t-9.5 -25v-571q0 -20 19 -34t19 -21v-2q0 -12 -20 -12h-41q-67 -65 -67 -119q0 -24 11 -37t29 -13q7 0 27 6q15 6 18 -12t-11 -25q-18 -10 -48 -10q-37 0 -64.5 20.5t-27.5 57.5q0 34 26.5 69t69.5 63h-47q-20 0 -20 12v2q0 7 18 21t18 34
v571q0 20 -18 34.5t-18 21.5v2q0 12 20 12h125q20 0 20 -12v-2z" />
    <glyph glyph-name="iogonek" unicode="&#x12f;" horiz-adv-x="243" 
d="M120 575q-31 0 -49 17t-18 45t18.5 45.5t48.5 17.5q29 0 47 -17.5t18 -45.5t-18 -45t-47 -17zM166 71q0 -12 6 -20.5t14 -12.5t14 -9.5t6 -11.5v-4q0 -13 -21 -13h-28q-66 -66 -66 -119q0 -50 39 -50q7 0 27 6q15 6 18 -12t-10 -25q-20 -10 -48 -10q-37 0 -64.5 20.5
t-27.5 57.5q0 70 95 132h-58q-19 0 -19 13v4q0 7 9 13.5t18 16t9 24.5v298q0 23 -18 40t-18 22v2q0 7 15 15l77 38q16 6 23.5 2t7.5 -16v-401z" />
    <glyph glyph-name="Idotaccent" unicode="&#x130;" horiz-adv-x="284" 
d="M145 776q-29 0 -47 16.5t-18 43.5t18 44t47 17q28 0 45.5 -17t17.5 -44t-17.5 -43.5t-45.5 -16.5zM60 12v2q0 7 18 21t18 34v571q0 20 -18 34.5t-18 21.5v2q0 12 20 12h125q20 0 20 -12v-2q0 -7 -9.5 -14t-19 -17t-9.5 -25v-571q0 -20 19 -34t19 -21v-2q0 -12 -20 -12
h-125q-20 0 -20 12z" />
    <glyph glyph-name="dotlessi" unicode="&#x131;" horiz-adv-x="240" 
d="M62 0q-19 0 -19 13v4q0 7 9 13.5t18 16t9 24.5v298q0 23 -18 40t-18 22v2q0 7 15 15l77 38q16 6 23.5 2t7.5 -16v-401q0 -12 6 -20.5t14 -12.5t14 -9.5t6 -11.5v-4q0 -13 -21 -13h-123z" />
    <glyph glyph-name="IJ" unicode="&#x132;" horiz-adv-x="791" 
d="M60 12v2q0 7 18 21t18 34v571q0 20 -18 34.5t-18 21.5v2q0 12 20 12h125q20 0 20 -12v-2q0 -7 -9.5 -14t-19 -17t-9.5 -25v-571q0 -20 19 -34t19 -21v-2q0 -12 -20 -12h-125q-20 0 -20 12zM614 640q0 20 -18 34.5t-18 21.5v2q0 12 20 12h126q20 0 20 -12v-2
q0 -7 -9.5 -14t-19 -17t-9.5 -25l-2 -385q-1 -263 -212 -265q-54 0 -96 16t-65.5 42t-35 52.5t-11.5 50.5q0 21 11.5 33.5t31.5 12.5q22 0 35 -17t20.5 -41.5t18 -49t35.5 -41.5t65 -17q49 0 81 47.5t32 134.5v427z" />
    <glyph glyph-name="ij" unicode="&#x133;" horiz-adv-x="482" 
d="M120 575q-31 0 -49 17t-18 45t18.5 45.5t48.5 17.5q29 0 47 -17.5t18 -45.5t-18 -45t-47 -17zM365 575q-30 0 -48.5 17t-18.5 45t18.5 45.5t48.5 17.5t47.5 -17.5t17.5 -45.5t-17.5 -45t-47.5 -17zM62 0q-19 0 -19 13v4q0 7 9 13.5t18 16t9 24.5v298q0 23 -18 40t-18 22
v2q0 7 15 15l77 38q16 6 23.5 2t7.5 -16v-401q0 -12 6 -20.5t14 -12.5t14 -9.5t6 -11.5v-4q0 -13 -21 -13h-123zM296 -184q-50 0 -80.5 22t-30.5 58q0 17 10.5 28t28.5 11q19 0 30 -13t14 -29t13.5 -29t29.5 -13q20 0 32.5 15t12.5 39q0 25 -14 62t-14 59v343q0 23 -18 39
t-18 22v3q0 7 15 15l80 38q14 7 22.5 2t8.5 -16v-469q0 -62 -16 -111q-26 -76 -106 -76z" />
    <glyph glyph-name="uni0136" unicode="&#x136;" horiz-adv-x="688" 
d="M642 83q2 -23 25 -43t23 -26v-2q0 -12 -20 -12h-138q-21 0 -21 12v2q0 6 19 21t18 36q0 85 -55.5 185.5t-144.5 155.5l-161 -159v-182q0 -20 19.5 -35t19.5 -22v-2q0 -12 -21 -12h-125q-20 0 -20 12v2q0 7 18 22t18 35v569q0 20 -18 34t-18 21v3q0 12 20 12h125
q21 0 21 -12v-3q0 -7 -19.5 -21t-19.5 -34v-326l326 323q14 18 10.5 25t-14.5 17t-11 16v3q0 12 20 12h104q20 0 20 -12v-3q0 -8 -9 -15t-27 -18.5t-31 -24.5l-168 -166q105 -67 168 -179.5t67 -208.5zM370 -60q26 0 43.5 -19t17.5 -51q0 -98 -98 -167q-10 -7 -19 2t1 18
q44 42 53 85q4 14 -8 14q-21 0 -34.5 16t-13.5 41q0 27 16 44t42 17z" />
    <glyph glyph-name="uni0137" unicode="&#x137;" horiz-adv-x="526" 
d="M489 58q6 -8 25.5 -19t19.5 -23v-3q0 -13 -15 -13h-129q-15 0 -15 14v3q0 8 13.5 18.5t5.5 22.5l-128 184q-50 -15 -105 -16v-153q0 -19 20 -33t20 -23v-4q0 -13 -21 -13h-124q-21 0 -21 13v4q0 9 18.5 23t18.5 33v556q0 21 -19.5 39t-19.5 25v1q0 10 15 16l84 39
q14 6 21.5 1t7.5 -16v-466q69 2 113 25.5t61 55.5t26.5 64t21.5 54t33 22q41 0 41 -40q0 -37 -29.5 -89t-90.5 -88zM272 -60q26 0 43 -19t17 -51q0 -99 -98 -167q-10 -7 -18.5 2t1.5 18q43 42 52 85q3 14 -8 14q-20 0 -33.5 16t-13.5 41q0 27 16 44t42 17z" />
    <glyph glyph-name="kgreenlandic" unicode="&#x138;" horiz-adv-x="526" 
d="M489 58q6 -8 25.5 -19t19.5 -23v-3q0 -13 -15 -13h-129q-15 0 -15 14v3q0 8 13.5 18.5t5.5 22.5l-128 184q-50 -15 -105 -16v-153q0 -19 20 -33t20 -23v-4q0 -13 -21 -13h-124q-21 0 -21 13v4q0 9 18.5 23t18.5 33v391q0 21 -19.5 39.5t-19.5 24.5v1q0 9 15 16l84 39
q14 5 21.5 0.5t7.5 -15.5v-301q69 2 113 25.5t61 55.5t26.5 64t21.5 54t33 22q41 0 41 -40q0 -37 -29.5 -89t-90.5 -88z" />
    <glyph glyph-name="Lacute" unicode="&#x139;" horiz-adv-x="575" 
d="M57 782q-18 -2 -24 12q-3 15 11 22l198 88q26 13 34 -15l9 -34q3 -11 -2.5 -19t-17.5 -9zM80 0q-20 0 -20 12v2q0 8 18 22t18 34v570q0 21 -18 34.5t-18 21.5v2q0 12 20 12h126q20 0 20 -12v-2q0 -8 -19.5 -21.5t-19.5 -34.5v-560q0 -39 32 -39h222q20 0 36 17t25 38
t21 38t23 17h8q16 0 11 -18l-25 -110q-5 -23 -25 -23h-435z" />
    <glyph glyph-name="lacute" unicode="&#x13a;" horiz-adv-x="238" 
d="M6 791q-19 -2 -24 11q-4 15 10 23l198 88q26 12 34 -15l9 -34q4 -11 -1.5 -19t-18.5 -9zM57 0q-19 0 -19 13v3q0 8 17.5 21.5t17.5 32.5v562q0 17 -8.5 28.5t-17.5 18.5t-9 13v2q0 8 14 16l78 38q15 6 23 1.5t8 -15.5v-664q0 -19 19.5 -32.5t19.5 -21.5v-3q0 -13 -20 -13
h-123z" />
    <glyph glyph-name="uni013B" unicode="&#x13b;" horiz-adv-x="575" 
d="M80 0q-20 0 -20 12v2q0 8 18 22t18 34v570q0 21 -18 34.5t-18 21.5v2q0 12 20 12h126q20 0 20 -12v-2q0 -8 -19.5 -21.5t-19.5 -34.5v-560q0 -39 32 -39h222q20 0 36 17t25 38t21 38t23 17h8q16 0 11 -18l-25 -110q-5 -23 -25 -23h-435zM276 -297q-11 -7 -19.5 2t1.5 18
q44 43 53 85q3 14 -8 14q-21 0 -34.5 16t-13.5 41q0 27 16 44t42 17t43.5 -19t17.5 -51q0 -98 -98 -167z" />
    <glyph glyph-name="uni013C" unicode="&#x13c;" horiz-adv-x="238" 
d="M57 0q-19 0 -19 13v3q0 8 17.5 21.5t17.5 32.5v562q0 17 -8.5 28.5t-17.5 18.5t-9 13v2q0 8 14 16l78 38q15 6 23 1.5t8 -15.5v-664q0 -19 19.5 -32.5t19.5 -21.5v-3q0 -13 -20 -13h-123zM88 -281q-11 -6 -19 2.5t1 18.5q44 42 53 84q3 14 -9 14q-20 0 -33.5 16t-13.5 41
q0 27 16 44.5t42 17.5t43 -19t17 -52q0 -99 -97 -167z" />
    <glyph glyph-name="Lcaron" unicode="&#x13d;" horiz-adv-x="577" 
d="M356 510l-6 4q-11 8 2 25q59 80 59 191q0 21 15 21h34q17 0 17 -21q0 -133 -95 -217q-15 -13 -26 -3zM80 0q-20 0 -20 12v2q0 8 18 22t18 34v570q0 21 -18 34.5t-18 21.5v2q0 12 20 12h126q20 0 20 -12v-2q0 -8 -19.5 -21.5t-19.5 -34.5v-560q0 -39 32 -39h222
q20 0 36 17t25 38t21 38t23 17h8q16 0 11 -18l-25 -110q-5 -23 -25 -23h-435z" />
    <glyph glyph-name="lcaron" unicode="&#x13e;" horiz-adv-x="253" 
d="M201 564l-5 4q-11 9 2 25q58 80 58 192q0 8 4.5 14t11.5 6h33q17 0 17 -20q0 -134 -94 -217q-14 -12 -27 -4zM57 0q-19 0 -19 13v3q0 8 17.5 21.5t17.5 32.5v562q0 17 -8.5 28.5t-17.5 18.5t-9 13v2q0 8 14 16l78 38q15 6 23 1.5t8 -15.5v-664q0 -19 19.5 -32.5
t19.5 -21.5v-3q0 -13 -20 -13h-123z" />
    <glyph glyph-name="Ldot" unicode="&#x13f;" horiz-adv-x="578" 
d="M80 0q-20 0 -20 12v2q0 8 18 22t18 34v570q0 21 -18 34.5t-18 21.5v2q0 12 20 12h126q20 0 20 -12v-2q0 -8 -19.5 -21.5t-19.5 -34.5v-560q0 -39 32 -39h222q20 0 36 17t25 38t21 38t23 17h8q16 0 11 -18l-25 -110q-5 -23 -25 -23h-435zM404 324q-28 0 -46 15.5t-18 44.5
q0 30 18 45.5t46 15.5t46 -15.5t18 -45.5q0 -29 -18 -44.5t-46 -15.5z" />
    <glyph glyph-name="ldot" unicode="&#x140;" horiz-adv-x="325" 
d="M57 0q-19 0 -19 13v3q0 8 17.5 21.5t17.5 32.5v562q0 17 -8.5 28.5t-17.5 18.5t-9 13v2q0 8 14 16l78 38q15 6 23 1.5t8 -15.5v-664q0 -19 19.5 -32.5t19.5 -21.5v-3q0 -13 -20 -13h-123zM272 326q-28 0 -46.5 15.5t-18.5 44.5q0 30 18.5 45.5t46.5 15.5t46 -16t18 -45
t-18 -44.5t-46 -15.5z" />
    <glyph glyph-name="Lslash" unicode="&#x141;" horiz-adv-x="601" 
d="M580 151q16 0 11 -18l-25 -110q-5 -23 -25 -23h-435q-20 0 -20 12v2q0 8 18 22t18 34v214l-75 -40q-18 -7 -22 6l-5 10q-6 13 10 21l92 49v310q0 21 -18 34.5t-18 21.5v2q0 12 20 12h126q20 0 20 -12v-2q0 -8 -19.5 -21.5t-19.5 -34.5v-262l102 54q15 8 21 -6l5 -9
q6 -13 -10 -21l-118 -63v-253q0 -39 32 -39h222q20 0 36 17t25 38t21 38t23 17h8z" />
    <glyph glyph-name="lslash" unicode="&#x142;" horiz-adv-x="297" 
d="M285 457q6 -10 -6 -18l-81 -54v-315q0 -19 19.5 -32.5t19.5 -21.5v-3q0 -13 -21 -13h-122q-20 0 -20 13v3q0 8 18 21.5t18 32.5v257l-67 -44q-8 -7 -17 2l-10 16q-6 9 4 17l90 60v254q0 17 -9 28.5t-18 18.5t-9 13v2q0 8 15 16l77 38q16 6 24 1.5t8 -15.5v-297l55 37
q16 10 22 -1z" />
    <glyph glyph-name="Nacute" unicode="&#x143;" horiz-adv-x="750" 
d="M298 782q-19 -2 -24 12t10 22l199 88q24 12 34 -15l8 -34q4 -11 -1.5 -19t-17.5 -9zM676 710q20 0 20 -11v-3q0 -7 -20 -21.5t-20 -34.5v-613q0 -27 -25 -27h-25q-17 0 -34 26l-425 580v-533q0 -19 21.5 -35t21.5 -24v-2q0 -12 -21 -12h-91q-20 0 -20 12v2q0 8 19 24
t19 35v566q0 19 -19 34t-19 23v2q0 12 20 12h149q16 0 16 -11v-3q0 -5 -11 -13.5t-15.5 -16.5t6.5 -27l382 -524v525q0 20 -20.5 34.5t-20.5 21.5v3q0 11 21 11h91z" />
    <glyph glyph-name="nacute" unicode="&#x144;" horiz-adv-x="574" 
d="M213 557q-18 -5 -26 7q-7 13 6 24l176 126q23 17 37 -7l15 -32q5 -10 1.5 -19t-15.5 -13zM514 72q1 -16 10 -26t17.5 -16.5t8.5 -13.5v-4q0 -13 -21 -13h-119q-21 0 -21 13v4q0 7 18.5 21t17.5 34l-10 200q-4 89 -36.5 134.5t-86.5 45.5q-55 0 -90 -39t-35 -99v-243
q0 -12 6.5 -20.5t13.5 -12.5t13.5 -9.5t6.5 -11.5v-4q0 -13 -21 -13h-125q-20 0 -20 13v4q0 8 19.5 21t19.5 33v303q0 19 -10.5 29.5t-21 16.5t-10.5 13v3q0 9 16 15l75 36q14 7 21 2t7 -17v-73q22 42 63.5 67t92.5 25q78 0 130.5 -55t59.5 -166z" />
    <glyph glyph-name="uni0145" unicode="&#x145;" horiz-adv-x="750" 
d="M676 710q20 0 20 -11v-3q0 -7 -20 -21.5t-20 -34.5v-613q0 -27 -25 -27h-25q-17 0 -34 26l-425 580v-533q0 -19 21.5 -35t21.5 -24v-2q0 -12 -21 -12h-91q-20 0 -20 12v2q0 8 19 24t19 35v566q0 19 -19 34t-19 23v2q0 12 20 12h149q16 0 16 -11v-3q0 -5 -11 -13.5
t-15.5 -16.5t6.5 -27l382 -524v525q0 20 -20.5 34.5t-20.5 21.5v3q0 11 21 11h91zM382 -60q26 0 43 -19t17 -51q0 -99 -98 -167q-10 -7 -18.5 2t1.5 18q42 41 53 85q2 14 -9 14q-20 0 -33.5 16t-13.5 41q0 27 16 44t42 17z" />
    <glyph glyph-name="uni0146" unicode="&#x146;" horiz-adv-x="574" 
d="M514 72q1 -16 10 -26t17.5 -16.5t8.5 -13.5v-4q0 -13 -21 -13h-119q-21 0 -21 13v4q0 7 18.5 21t17.5 34l-10 200q-4 89 -36.5 134.5t-86.5 45.5q-55 0 -90 -39t-35 -99v-243q0 -12 6.5 -20.5t13.5 -12.5t13.5 -9.5t6.5 -11.5v-4q0 -13 -21 -13h-125q-20 0 -20 13v4
q0 8 19.5 21t19.5 33v303q0 19 -10.5 29.5t-21 16.5t-10.5 13v3q0 9 16 15l75 36q14 7 21 2t7 -17v-73q22 42 63.5 67t92.5 25q78 0 130.5 -55t59.5 -166zM298 -60q26 0 43 -19t17 -51q0 -99 -97 -167q-11 -7 -19.5 2t1.5 18q44 43 53 85q4 14 -8 14q-21 0 -34.5 16
t-13.5 41q0 27 16 44t42 17z" />
    <glyph glyph-name="Ncaron" unicode="&#x147;" horiz-adv-x="750" 
d="M348 761l-114 106q-7 7 -3.5 15t12 10.5t16.5 -1.5l131 -84l131 84q9 5 18 1.5t11 -11t-4 -14.5l-117 -106q-14 -13 -30 -13h-20q-15 0 -31 13zM676 710q20 0 20 -11v-3q0 -7 -20 -21.5t-20 -34.5v-613q0 -27 -25 -27h-25q-17 0 -34 26l-425 580v-533q0 -19 21.5 -35
t21.5 -24v-2q0 -12 -21 -12h-91q-20 0 -20 12v2q0 8 19 24t19 35v566q0 19 -19 34t-19 23v2q0 12 20 12h149q16 0 16 -11v-3q0 -5 -11 -13.5t-15.5 -16.5t6.5 -27l382 -524v525q0 20 -20.5 34.5t-20.5 21.5v3q0 11 21 11h91z" />
    <glyph glyph-name="ncaron" unicode="&#x148;" horiz-adv-x="574" 
d="M256 569l-115 109q-7 7 -3.5 15t12 10.5t16.5 -1.5l132 -87l131 87q8 6 17.5 2t11.5 -11.5t-4 -14.5l-117 -109q-15 -14 -31 -14h-20q-16 0 -30 14zM514 72q1 -16 10 -26t17.5 -16.5t8.5 -13.5v-4q0 -13 -21 -13h-119q-21 0 -21 13v4q0 7 18.5 21t17.5 34l-10 200
q-4 89 -36.5 134.5t-86.5 45.5q-55 0 -90 -39t-35 -99v-243q0 -12 6.5 -20.5t13.5 -12.5t13.5 -9.5t6.5 -11.5v-4q0 -13 -21 -13h-125q-20 0 -20 13v4q0 8 19.5 21t19.5 33v303q0 19 -10.5 29.5t-21 16.5t-10.5 13v3q0 9 16 15l75 36q14 7 21 2t7 -17v-73q22 42 63.5 67
t92.5 25q78 0 130.5 -55t59.5 -166z" />
    <glyph glyph-name="napostrophe" unicode="&#x149;" horiz-adv-x="612" 
d="M13 756q27 0 45.5 -20t18.5 -54q0 -104 -104 -176q-10 -6 -19 3.5t1 18.5q45 43 56 89q3 15 -9 15q-21 0 -35.5 16.5t-14.5 42.5q0 29 16.5 47t44.5 18zM553 72q1 -16 10 -26t17.5 -16.5t8.5 -13.5v-4q0 -13 -21 -13h-119q-21 0 -21 13v4q0 7 18.5 21t17.5 34l-10 200
q-4 89 -36.5 134.5t-86.5 45.5q-50 0 -84 -33.5t-40 -85.5v-262q0 -20 19.5 -33t19.5 -21v-4q0 -13 -21 -13h-124q-20 0 -20 13v4q0 8 19 21t19 33v303q0 19 -10.5 29.5t-21 16.5t-10.5 13v3q0 9 16 15l75 36q14 7 21 2t7 -17v-73q22 42 63.5 67t92.5 25q79 0 131.5 -55
t58.5 -166z" />
    <glyph glyph-name="Eng" unicode="&#x14a;" horiz-adv-x="749" 
d="M676 710q20 0 20 -12v-2q0 -7 -10 -14.5t-20.5 -18.5t-10.5 -26v-614q0 -102 -46 -160t-136 -59q-84 -1 -133 49t-49 103q0 22 12 34.5t32 12.5t31 -16.5t17.5 -40t15.5 -47.5t31.5 -40.5t58.5 -16.5q51 0 81 45t33 118l-455 603v-535q0 -16 10 -26.5t20.5 -18
t10.5 -14.5v-2q0 -12 -20 -12h-91q-20 0 -20 12v2q0 7 19 22.5t19 36.5v564q0 20 -19 35.5t-19 22.5v2q0 13 20 13h72q20 0 35 -20l418 -571v518q0 20 -19 36t-19 23v2q0 12 20 12h91z" />
    <glyph glyph-name="eng" unicode="&#x14b;" horiz-adv-x="563" 
d="M517 15q3 -68 -15 -123q-24 -79 -106 -79q-45 0 -77 23t-32 58q0 17 11.5 27t29.5 10t28 -13t13 -28t13 -28t29 -13q21 0 33.5 15t12.5 41q0 23 -14 61t-16 71l-12 228q-11 186 -125 186q-49 0 -83 -33.5t-40 -85.5v-261q0 -20 19.5 -34t19.5 -21v-4q0 -12 -20 -12h-125
q-20 0 -20 12v4q0 7 19.5 21t19.5 34v300q0 20 -20.5 37t-20.5 24v3q0 9 15 15l75 36q27 14 27 -15l1 -71q20 43 60.5 66.5t92.5 23.5q79 0 132 -56.5t60 -170.5z" />
    <glyph glyph-name="Omacron" unicode="&#x14c;" horiz-adv-x="771" 
d="M251 811q-17 0 -17 15v28q0 15 17 15h263q18 0 18 -15v-28q0 -15 -18 -15h-263zM394 -10q-154 0 -255 109t-101 258q0 157 98 260t251 103q151 0 249 -108t98 -261q0 -149 -98.5 -255t-241.5 -106zM416 33q98 0 163 77t65 181q0 162 -81 274t-207 112q-100 0 -164 -74
t-64 -185q0 -159 81.5 -272t206.5 -113z" />
    <glyph glyph-name="omacron" unicode="&#x14d;" horiz-adv-x="565" 
d="M150 604q-18 0 -18 16v28q0 15 18 15h263q17 0 17 -15v-28q0 -16 -17 -16h-263zM294 -10q-116 0 -188.5 75.5t-72.5 181.5q0 104 70 173.5t173 69.5q111 0 182.5 -73.5t71.5 -180.5q0 -105 -66 -175.5t-170 -70.5zM306 23q59 0 97.5 50t38.5 133q0 106 -50 178.5
t-126 72.5q-64 0 -104 -49.5t-40 -132.5q0 -100 52 -176t132 -76z" />
    <glyph glyph-name="Ohungarumlaut" unicode="&#x150;" horiz-adv-x="771" 
d="M257 753q-8 7 2 24l113 159q16 24 33 7l20 -18q20 -20 0 -35l-144 -132q-13 -13 -24 -5zM439 753q-9 7 2 23l113 160q15 22 33 6l20 -18q20 -19 -1 -35l-143 -132q-13 -12 -24 -4zM394 -10q-154 0 -255 109t-101 258q0 157 98 260t251 103q151 0 249 -108t98 -261
q0 -149 -98.5 -255t-241.5 -106zM416 33q98 0 163 77t65 181q0 162 -81 274t-207 112q-100 0 -164 -74t-64 -185q0 -159 81.5 -272t206.5 -113z" />
    <glyph glyph-name="ohungarumlaut" unicode="&#x151;" horiz-adv-x="565" 
d="M156 552q-10 7 2 24l113 159q16 23 33 6l19 -18q22 -18 1 -34l-144 -133q-15 -12 -24 -4zM337 552q-8 7 2 23l114 160q15 23 33 6l19 -19q22 -19 0 -34l-143 -132q-14 -12 -25 -4zM294 -10q-116 0 -188.5 75.5t-72.5 181.5q0 104 70 173.5t173 69.5q111 0 182.5 -73.5
t71.5 -180.5q0 -105 -66 -175.5t-170 -70.5zM306 23q59 0 97.5 50t38.5 133q0 106 -50 178.5t-126 72.5q-64 0 -104 -49.5t-40 -132.5q0 -100 52 -176t132 -76z" />
    <glyph glyph-name="OE" unicode="&#x152;" horiz-adv-x="1108" 
d="M1077 141q16 0 11 -17l-25 -101q-5 -23 -25 -23h-409q-21 0 -21 13v2q0 7 17 21.5t17 34.5v51q-45 -62 -111.5 -97t-144.5 -35q-144 0 -248 105.5t-104 261.5q0 161 94.5 262t243.5 101q82 0 153 -38t117 -104v61q0 20 -17 35t-17 22v3q0 11 21 11h380q20 0 25 -22
l23 -97q5 -19 -13 -19h-7q-9 0 -20 15.5t-19.5 33.5t-23.5 33.5t-33 15.5l-200 -1q-28 0 -28 -32v-255h203q16 0 26 15t15.5 29.5t11.5 14.5h7q13 0 13 -21v-115q0 -21 -13 -21h-7q-6 0 -11.5 14.5t-15.5 29t-26 14.5h-203v-262q0 -38 36 -38h220q25 0 43.5 24.5t31.5 49.5
t23 25h10zM412 33q99 0 163.5 72.5t64.5 185.5q0 90 -39 179t-106.5 148t-143.5 59q-99 0 -163 -73.5t-64 -185.5q0 -95 38.5 -184t105.5 -145t144 -56z" />
    <glyph glyph-name="oe" unicode="&#x153;" horiz-adv-x="902" 
d="M845 148q7 11 19.5 7.5t10.5 -16.5q-12 -58 -65.5 -103.5t-136.5 -45.5q-59 0 -109 27.5t-81 75.5q-32 -48 -83 -75.5t-112 -27.5q-104 0 -179.5 74.5t-75.5 182.5q0 104 71.5 173.5t178.5 69.5q58 0 110 -28t86 -77q66 105 191 105q85 0 139 -46.5t54 -104.5
q0 -41 -45 -56l-279 -91q18 -64 61.5 -101t103.5 -37q93 0 141 94zM659 458q-58 0 -94.5 -52t-36.5 -130q0 -31 4 -52l223 77q24 8 24 39q0 37 -35.5 77.5t-84.5 40.5zM306 23q60 0 97.5 50.5t37.5 125.5q0 96 -51 177t-129 81q-62 0 -100.5 -50.5t-38.5 -124.5
q0 -107 52 -183t132 -76z" />
    <glyph glyph-name="Racute" unicode="&#x154;" horiz-adv-x="654" 
d="M230 782q-18 -2 -24 12q-3 15 11 22l198 88q26 13 34 -15l9 -34q3 -11 -2.5 -19t-17.5 -9zM592 66q1 -18 21 -31t20 -21v-2q0 -12 -20 -12h-124q-20 0 -20 12v2q0 8 16 19.5t15 29.5q-2 72 -38 132t-100 86q-23 -4 -55 -4h-120v-207q0 -15 9.5 -25t19.5 -17t10 -14v-2
q0 -12 -20 -12h-126q-20 0 -20 12v2q0 7 18 21.5t18 34.5v570q0 20 -18 34.5t-18 21.5v2q0 12 20 12h205q135 0 218 -55.5t84 -164.5q1 -60 -36.5 -110t-104.5 -78q65 -34 103.5 -98.5t42.5 -137.5zM298 317q88 0 141.5 43t53.5 117q0 94 -61 143t-152 49h-67q-26 0 -26 -34
v-269q0 -49 42 -49h69z" />
    <glyph glyph-name="racute" unicode="&#x155;" horiz-adv-x="381" 
d="M133 557q-18 -5 -26 7q-7 12 5 24l177 126q23 17 36 -7l16 -32q5 -10 1.5 -19t-15.5 -13zM286 490q43 0 67.5 -22t24.5 -55q0 -47 -40 -47q-17 0 -27 11t-13.5 24t-15.5 24t-33 11q-40 0 -62.5 -39.5t-22.5 -98.5v-228q0 -20 21 -33.5t21 -20.5v-4q0 -12 -20 -12h-124
q-20 0 -20 12v4q0 7 18.5 20.5t18.5 33.5v304q0 21 -20 36t-20 22v2q0 10 15 18l76 34q26 12 26 -14v-80q34 98 130 98z" />
    <glyph glyph-name="uni0156" unicode="&#x156;" horiz-adv-x="654" 
d="M592 66q1 -18 21 -31t20 -21v-2q0 -12 -20 -12h-124q-20 0 -20 12v2q0 8 16 19.5t15 29.5q-2 72 -38 132t-100 86q-23 -4 -55 -4h-120v-207q0 -15 9.5 -25t19.5 -17t10 -14v-2q0 -12 -20 -12h-126q-20 0 -20 12v2q0 7 18 21.5t18 34.5v570q0 20 -18 34.5t-18 21.5v2
q0 12 20 12h205q135 0 218 -55.5t84 -164.5q1 -60 -36.5 -110t-104.5 -78q65 -34 103.5 -98.5t42.5 -137.5zM298 317q88 0 141.5 43t53.5 117q0 94 -61 143t-152 49h-67q-26 0 -26 -34v-269q0 -49 42 -49h69zM348 -52q26 0 43 -19t17 -51q0 -100 -98 -168q-10 -6 -18 3t1 18
q42 40 53 85q2 13 -9 13q-20 0 -33.5 16t-13.5 41q0 27 16 44.5t42 17.5z" />
    <glyph glyph-name="uni0157" unicode="&#x157;" horiz-adv-x="381" 
d="M286 490q43 0 67.5 -22t24.5 -55q0 -47 -40 -47q-17 0 -27 11t-13.5 24t-15.5 24t-33 11q-40 0 -62.5 -39.5t-22.5 -98.5v-228q0 -20 21 -33.5t21 -20.5v-4q0 -12 -20 -12h-124q-20 0 -20 12v4q0 7 18.5 20.5t18.5 33.5v304q0 21 -20 36t-20 22v2q0 10 15 18l76 34
q26 12 26 -14v-80q34 98 130 98zM124 -60q26 0 43.5 -19t17.5 -51q0 -99 -98 -167q-10 -7 -18.5 2t0.5 18q44 42 53 85q4 14 -8 14q-20 0 -33.5 16t-13.5 41q0 27 15.5 44t41.5 17z" />
    <glyph glyph-name="Rcaron" unicode="&#x158;" horiz-adv-x="654" 
d="M166 867q-8 7 -4.5 15t12 10.5t16.5 -1.5l132 -84l131 84q9 5 18 1.5t11 -11t-4 -14.5l-117 -106q-16 -13 -30 -13h-21q-16 0 -30 13zM592 66q1 -18 21 -31t20 -21v-2q0 -12 -20 -12h-124q-20 0 -20 12v2q0 8 16 19.5t15 29.5q-2 72 -38 132t-100 86q-23 -4 -55 -4h-120
v-207q0 -15 9.5 -25t19.5 -17t10 -14v-2q0 -12 -20 -12h-126q-20 0 -20 12v2q0 7 18 21.5t18 34.5v570q0 20 -18 34.5t-18 21.5v2q0 12 20 12h205q135 0 218 -55.5t84 -164.5q1 -60 -36.5 -110t-104.5 -78q65 -34 103.5 -98.5t42.5 -137.5zM298 317q88 0 141.5 43t53.5 117
q0 94 -61 143t-152 49h-67q-26 0 -26 -34v-269q0 -49 42 -49h69z" />
    <glyph glyph-name="rcaron" unicode="&#x159;" horiz-adv-x="381" 
d="M175 569l-114 109q-7 7 -3.5 15t12 10.5t16.5 -1.5l132 -87l130 87q8 6 17.5 2t11.5 -11.5t-4 -14.5l-117 -109q-14 -14 -30 -14h-20q-16 0 -31 14zM286 490q43 0 67.5 -22t24.5 -55q0 -47 -40 -47q-17 0 -27 11t-13.5 24t-15.5 24t-33 11q-40 0 -62.5 -39.5t-22.5 -98.5
v-228q0 -20 21 -33.5t21 -20.5v-4q0 -12 -20 -12h-124q-20 0 -20 12v4q0 7 18.5 20.5t18.5 33.5v304q0 21 -20 36t-20 22v2q0 10 15 18l76 34q26 12 26 -14v-80q34 98 130 98z" />
    <glyph glyph-name="Sacute" unicode="&#x15a;" horiz-adv-x="608" 
d="M235 782q-19 -2 -24 12q-3 15 11 22l198 88q26 13 34 -15l9 -34q3 -11 -2.5 -19t-17.5 -9zM315 -10q-132 0 -207 59.5t-75 116.5q0 18 10 29t28 11q19 -1 33.5 -19.5t28 -44.5t32.5 -51.5t58.5 -43.5t95.5 -18q71 0 115.5 37.5t44.5 96.5q0 50 -23.5 82t-61 46.5
t-83 23.5t-91.5 20t-83.5 29.5t-61 58.5t-23.5 101q0 86 66.5 140.5t182.5 54.5q118 0 188.5 -52t70.5 -111q0 -40 -41 -40q-20 0 -33.5 17t-24.5 41t-27 48t-50.5 41t-85.5 17q-73 0 -114 -38t-41 -97q0 -47 23.5 -77t61.5 -44t83.5 -23.5t91 -21.5t83.5 -31.5t61.5 -61
t23.5 -102.5q0 -88 -74 -141t-182 -53z" />
    <glyph glyph-name="sacute" unicode="&#x15b;" horiz-adv-x="467" 
d="M148 557q-18 -5 -26 7q-7 12 5 24l177 126q23 17 36 -7l16 -32q5 -10 1.5 -19t-15.5 -13zM234 -9q-92 0 -147.5 37t-55.5 77q0 37 39 37q17 0 27.5 -12.5t18.5 -30.5t19.5 -36t36.5 -30.5t62 -12.5q50 0 82 23.5t32 64.5q0 40 -31.5 62t-76.5 31.5t-90 21.5t-76.5 44
t-31.5 86q0 58 53 97.5t135 39.5q87 0 141 -37t54 -81q0 -15 -10.5 -25t-25.5 -10q-18 0 -31 19t-21.5 42t-34.5 42t-68 19q-44 0 -73.5 -25t-29.5 -62q0 -39 31.5 -60.5t76.5 -31.5t89.5 -22t76 -44.5t31.5 -87.5q0 -58 -55.5 -96.5t-146.5 -38.5z" />
    <glyph glyph-name="Scedilla" unicode="&#x15e;" horiz-adv-x="608" 
d="M571 184q0 -83 -67.5 -136t-168.5 -58l-3 -46q46 0 76.5 -19t30.5 -54q0 -34 -32.5 -54.5t-80.5 -20.5q-47 0 -82 20q-16 8 -9 27q5 13 16 8q29 -17 62 -17q25 0 42 10t16 30q-1 37 -64 37q-12 0 -18.5 8t-4.5 22l10 49q-64 3 -116.5 22.5t-82.5 47t-46 55t-16 51.5
q0 18 10 29t28 11q19 -1 33.5 -19.5t28 -44.5t32.5 -51.5t58.5 -43.5t95.5 -18q71 0 115.5 37.5t44.5 96.5q0 50 -23.5 82t-61 46.5t-83 23.5t-91.5 20t-83.5 29.5t-61 58.5t-23.5 101q0 86 66.5 140.5t182.5 54.5q118 0 188.5 -52t70.5 -111q0 -40 -41 -40q-20 0 -33.5 17
t-24.5 41t-27 48t-50.5 41t-85.5 17q-73 0 -114 -38t-41 -97q0 -47 23.5 -77t61.5 -44t83.5 -23.5t91 -21.5t83.5 -31.5t61.5 -61t23.5 -102.5z" />
    <glyph glyph-name="scedilla" unicode="&#x15f;" horiz-adv-x="467" 
d="M436 126q0 -54 -49.5 -92t-131.5 -42l-3 -48q46 0 76.5 -19t30.5 -54q0 -34 -32.5 -54.5t-81.5 -20.5q-46 0 -82 20q-15 8 -8 27q5 15 16 8q29 -17 61 -17q25 0 42.5 10t16.5 30q-1 37 -64 37q-28 0 -23 30l10 51q-84 4 -133.5 39.5t-49.5 73.5q0 37 39 37
q17 0 27.5 -12.5t18.5 -30.5t19.5 -36t36.5 -30.5t62 -12.5q50 0 82 23.5t32 64.5q0 40 -31.5 62t-76.5 31.5t-90 21.5t-76.5 44t-31.5 86q0 58 53 97.5t135 39.5q87 0 141 -37t54 -81q0 -15 -10.5 -25t-25.5 -10q-18 0 -31 19t-21.5 42t-34.5 42t-68 19q-44 0 -73.5 -25
t-29.5 -62q0 -39 31.5 -60.5t76.5 -31.5t89.5 -22t76 -44.5t31.5 -87.5z" />
    <glyph glyph-name="Scaron" unicode="&#x160;" horiz-adv-x="608" 
d="M270 761l-115 106q-7 7 -3.5 15t12 10.5t16.5 -1.5l132 -84l131 84q9 5 18 1.5t11 -11t-4 -14.5l-117 -106q-16 -13 -31 -13h-20q-16 0 -30 13zM143 545q0 -47 23.5 -77t61.5 -44t83.5 -23.5t91 -21.5t83.5 -31.5t61.5 -61t23.5 -102.5q0 -88 -74 -141t-182 -53
q-132 0 -207 59.5t-75 116.5q0 18 10 29t28 11q19 -1 33.5 -19.5t28 -44.5t32.5 -51.5t58.5 -43.5t95.5 -18q71 0 115.5 37.5t44.5 96.5q0 50 -23.5 82t-61 46.5t-83 23.5t-91.5 20t-83.5 29.5t-61 58.5t-23.5 101q0 86 66.5 140.5t182.5 54.5q118 0 188.5 -52t70.5 -111
q0 -40 -41 -40q-20 0 -33.5 17t-24.5 41t-27 48t-50.5 41t-85.5 17q-73 0 -114 -38t-41 -97z" />
    <glyph glyph-name="scaron" unicode="&#x161;" horiz-adv-x="467" 
d="M190 569l-114 109q-7 7 -3.5 15t12 10.5t16.5 -1.5l132 -87l130 87q8 6 17.5 2t11.5 -11.5t-4 -14.5l-117 -109q-14 -14 -30 -14h-20q-16 0 -31 14zM131 372q0 -39 31.5 -60.5t76.5 -31.5t89.5 -22t76 -44.5t31.5 -87.5q0 -58 -55.5 -96.5t-146.5 -38.5q-92 0 -147.5 37
t-55.5 77q0 37 39 37q17 0 27.5 -12.5t18.5 -30.5t19.5 -36t36.5 -30.5t62 -12.5q50 0 82 23.5t32 64.5q0 40 -31.5 62t-76.5 31.5t-90 21.5t-76.5 44t-31.5 86q0 58 53 97.5t135 39.5q87 0 141 -37t54 -81q0 -15 -10.5 -25t-25.5 -10q-18 0 -31 19t-21.5 42t-34.5 42
t-68 19q-44 0 -73.5 -25t-29.5 -62z" />
    <glyph glyph-name="uni0162" unicode="&#x162;" horiz-adv-x="608" 
d="M597 578q4 -19 -12 -19h-10q-9 0 -19.5 17t-18.5 37t-22.5 37t-31.5 17h-138v-597q0 -15 9.5 -25t19.5 -17t10 -14v-2q0 -12 -21 -12h-43l-3 -56q45 0 76.5 -19t31.5 -54q0 -34 -33 -54.5t-81 -20.5q-46 0 -82 20q-16 8 -9 27q5 15 17 8q27 -17 61 -17q25 0 42 10t16 30
q-1 37 -63 37q-29 0 -23 30l11 59h-43q-20 0 -20 12v2q0 7 18.5 21.5t18.5 34.5v597h-136q-17 0 -30.5 -17t-20.5 -37t-16.5 -37t-18.5 -17h-9q-16 0 -13 20l16 109q3 22 25 22h497q21 0 26 -22z" />
    <glyph glyph-name="uni0163" unicode="&#x163;" horiz-adv-x="356" 
d="M225 -56q45 0 76.5 -19t31.5 -54q0 -34 -32.5 -54.5t-81.5 -20.5q-46 0 -82 20q-15 8 -8 27q5 15 16 8q27 -17 61 -17q25 0 42 10t16 30q-1 37 -63 37q-29 0 -23 30l10 52q-47 8 -73.5 46t-26.5 102v299h-66q-15 0 -15 15v10q0 15 15 15h36q68 0 76 95q2 20 17 20h10
q16 0 16 -20l1 -95h138q6 0 10.5 -4.5t4.5 -10.5v-10q0 -15 -15 -15h-138v-300q0 -40 17 -62t46 -22q32 0 51.5 16.5t22.5 43.5q5 12 17.5 10.5t12.5 -14.5q0 -46 -32 -82t-85 -40z" />
    <glyph glyph-name="Tcaron" unicode="&#x164;" horiz-adv-x="608" 
d="M259 761l-114 106q-7 7 -3.5 15t12 10.5t16.5 -1.5l132 -84l131 84q8 5 17 1.5t11.5 -11t-3.5 -14.5l-117 -106q-16 -13 -31 -13h-20q-15 0 -31 13zM597 578q4 -19 -12 -19h-10q-9 0 -19.5 17t-18.5 37t-22.5 37t-31.5 17h-138v-597q0 -15 9.5 -25t19.5 -17t10 -14v-2
q0 -12 -21 -12h-125q-20 0 -20 12v2q0 7 18.5 21.5t18.5 34.5v597h-136q-17 0 -30.5 -17t-20.5 -37t-16.5 -37t-18.5 -17h-9q-16 0 -13 20l16 109q3 22 25 22h497q21 0 26 -22z" />
    <glyph glyph-name="tcaron" unicode="&#x165;" horiz-adv-x="356" 
d="M254 530l-5 4q-10 9 1 25q59 78 59 192q0 8 4.5 14t11.5 6h33q17 0 17 -20q0 -134 -95 -217q-15 -13 -26 -4zM217 -10q-60 0 -94.5 38.5t-34.5 112.5v299h-66q-15 0 -15 15v10q0 15 15 15h36q68 0 76 95q2 20 17 20h10q16 0 16 -20l1 -95h138q6 0 10.5 -4.5t4.5 -10.5
v-10q0 -15 -15 -15h-138v-300q0 -40 17 -62t46 -22q32 0 51.5 16.5t22.5 43.5q5 12 17.5 10.5t12.5 -14.5q0 -49 -35.5 -85.5t-92.5 -36.5z" />
    <glyph glyph-name="Tbar" unicode="&#x166;" horiz-adv-x="612" 
d="M600 578q4 -19 -13 -19h-9q-11 0 -24 27t-30 54t-39 27h-137v-288h94q15 0 15 -12v-15q0 -13 -15 -13h-94v-269q0 -15 9.5 -25t19 -17t9.5 -14v-2q0 -12 -20 -12h-125q-20 0 -20 12v2q0 7 18.5 21.5t18.5 34.5v269h-99q-15 0 -15 12v16q0 12 15 12h99v288h-137
q-17 0 -30.5 -17t-20.5 -37t-16 -37t-18 -17h-10q-16 0 -13 20l17 109q3 22 25 22h497q20 0 25 -22z" />
    <glyph glyph-name="tbar" unicode="&#x167;" horiz-adv-x="372" 
d="M329 116q5 12 17.5 10.5t12.5 -14.5q0 -49 -35.5 -85.5t-92.5 -36.5q-60 0 -94.5 38t-34.5 113v130h-68q-14 0 -14 12v16q0 12 14 12h68v129h-67q-14 0 -14 15v10q0 15 14 15h37q68 0 76 95q2 20 17 20h10q16 0 16 -20l1 -95h138q6 0 10.5 -4.5t4.5 -10.5v-10
q0 -15 -15 -15h-138v-129h125q15 0 15 -12v-15q0 -13 -15 -13h-125v-131q0 -40 17 -62t46 -22q32 0 51 16.5t23 43.5z" />
    <glyph glyph-name="Utilde" unicode="&#x168;" horiz-adv-x="743" 
d="M215 782q-14 0 -11 17q8 41 33 68t64 27q34 0 84.5 -28.5t68.5 -28.5q36 0 51 34q5 13 17 13h6q14 0 11 -17q-23 -93 -96 -93q-32 0 -81.5 29t-71.5 29q-34 0 -51 -35q-7 -15 -16 -15h-8zM644 86q0 -24 9 -36.5t20.5 -13t20.5 -4.5t9 -14q0 -24 -69 -24q-38 0 -54.5 18
t-15.5 85l-3 13q-60 -120 -224 -120q-115 0 -183.5 75t-68.5 204v354q0 16 -9 27.5t-18 18.5t-9 13v3q0 12 15 15l86 17q29 6 29 -12l-2 -446q0 -106 48.5 -168t131.5 -62q92 0 145.5 57.5t53.5 147.5v389q0 16 -10 27.5t-20.5 18.5t-10.5 13v3q0 11 17 15l85 17
q27 5 27 -12v-619z" />
    <glyph glyph-name="utilde" unicode="&#x169;" horiz-adv-x="565" 
d="M118 596q-13 0 -10 17q8 41 32.5 68t63.5 27q35 0 85 -28.5t69 -28.5q35 0 51 34q5 13 16 13h7q15 0 10 -17q-23 -93 -96 -93q-32 0 -81 29t-72 29q-34 0 -50 -35q-8 -15 -17 -15h-8zM486 86q0 -25 9 -38t19 -14.5t19 -5.5t9 -13q0 -21 -62 -21q-76 0 -73 74l-2 6
q-46 -84 -154 -84q-84 0 -134.5 59.5t-50.5 168.5v177q0 22 -18.5 37t-18.5 21v3q0 12 15 15l84 15q27 5 27 -12l-1 -263q0 -87 30.5 -134.5t87.5 -47.5q54 0 90.5 42t36.5 110v214q0 21 -19.5 36t-19.5 22v3q0 12 15 15l85 15q26 5 26 -12v-388z" />
    <glyph glyph-name="Umacron" unicode="&#x16a;" horiz-adv-x="743" 
d="M236 811q-18 0 -18 15v28q0 15 18 15h262q18 0 18 -15v-28q0 -15 -18 -15h-262zM644 86q0 -24 9 -36.5t20.5 -13t20.5 -4.5t9 -14q0 -24 -69 -24q-38 0 -54.5 18t-15.5 85l-3 13q-60 -120 -224 -120q-115 0 -183.5 75t-68.5 204v354q0 16 -9 27.5t-18 18.5t-9 13v3
q0 12 15 15l86 17q29 6 29 -12l-2 -446q0 -106 48.5 -168t131.5 -62q92 0 145.5 57.5t53.5 147.5v389q0 16 -10 27.5t-20.5 18.5t-10.5 13v3q0 11 17 15l85 17q27 5 27 -12v-619z" />
    <glyph glyph-name="umacron" unicode="&#x16b;" horiz-adv-x="565" 
d="M149 604q-17 0 -17 16v28q0 15 17 15h263q18 0 18 -15v-28q0 -16 -18 -16h-263zM486 86q0 -25 9 -38t19 -14.5t19 -5.5t9 -13q0 -21 -62 -21q-76 0 -73 74l-2 6q-46 -84 -154 -84q-84 0 -134.5 59.5t-50.5 168.5v177q0 22 -18.5 37t-18.5 21v3q0 12 15 15l84 15
q27 5 27 -12l-1 -263q0 -87 30.5 -134.5t87.5 -47.5q54 0 90.5 42t36.5 110v214q0 21 -19.5 36t-19.5 22v3q0 12 15 15l85 15q26 5 26 -12v-388z" />
    <glyph glyph-name="Uring" unicode="&#x16e;" horiz-adv-x="743" 
d="M369 758q-50 0 -83 28.5t-33 70.5q0 44 32.5 73t84.5 29q51 0 84.5 -28.5t33.5 -70.5q0 -44 -33 -73t-86 -29zM370 926q-27 0 -43.5 -18.5t-16.5 -48.5t17 -50t43 -20q27 0 44 19t17 51q0 29 -17 48t-44 19zM644 86q0 -24 9 -36.5t20.5 -13t20.5 -4.5t9 -14
q0 -24 -69 -24q-38 0 -54.5 18t-15.5 85l-3 13q-60 -120 -224 -120q-115 0 -183.5 75t-68.5 204v354q0 16 -9 27.5t-18 18.5t-9 13v3q0 12 15 15l86 17q29 6 29 -12l-2 -446q0 -106 48.5 -168t131.5 -62q92 0 145.5 57.5t53.5 147.5v389q0 16 -10 27.5t-20.5 18.5t-10.5 13
v3q0 11 17 15l85 17q27 5 27 -12v-619z" />
    <glyph glyph-name="uring" unicode="&#x16f;" horiz-adv-x="565" 
d="M280 544q-50 0 -83 29t-33 71q0 44 32.5 73t84.5 29q51 0 84.5 -28.5t33.5 -70.5q0 -45 -33 -74t-86 -29zM281 713q-27 0 -43.5 -18.5t-16.5 -49.5q0 -29 17 -49t43 -20q27 0 44 19t17 50q0 29 -17 48.5t-44 19.5zM486 86q0 -25 9 -38t19 -14.5t19 -5.5t9 -13
q0 -21 -62 -21q-76 0 -73 74l-2 6q-46 -84 -154 -84q-84 0 -134.5 59.5t-50.5 168.5v177q0 22 -18.5 37t-18.5 21v3q0 12 15 15l84 15q27 5 27 -12l-1 -263q0 -87 30.5 -134.5t87.5 -47.5q54 0 90.5 42t36.5 110v214q0 21 -19.5 36t-19.5 22v3q0 12 15 15l85 15q26 5 26 -12
v-388z" />
    <glyph glyph-name="Uhungarumlaut" unicode="&#x170;" horiz-adv-x="743" 
d="M242 753q-9 8 2 24l113 159q16 24 33 7l20 -18q19 -19 0 -35l-144 -132q-13 -13 -24 -5zM424 753q-9 7 2 23l113 160q15 22 33 6l20 -18q19 -19 -1 -35l-143 -132q-13 -12 -24 -4zM644 86q0 -24 9 -36.5t20.5 -13t20.5 -4.5t9 -14q0 -24 -69 -24q-38 0 -54.5 18t-15.5 85
l-3 13q-60 -120 -224 -120q-115 0 -183.5 75t-68.5 204v354q0 16 -9 27.5t-18 18.5t-9 13v3q0 12 15 15l86 17q29 6 29 -12l-2 -446q0 -106 48.5 -168t131.5 -62q92 0 145.5 57.5t53.5 147.5v389q0 16 -10 27.5t-20.5 18.5t-10.5 13v3q0 11 17 15l85 17q27 5 27 -12v-619z
" />
    <glyph glyph-name="uhungarumlaut" unicode="&#x171;" horiz-adv-x="565" 
d="M132 552q-9 8 2 24l113 159q16 24 33 6l19 -18q22 -18 1 -34l-144 -133q-14 -12 -24 -4zM313 552q-8 7 2 23l114 160q15 23 33 6l20 -19q21 -19 -1 -34l-143 -132q-12 -12 -25 -4zM486 86q0 -25 9 -38t19 -14.5t19 -5.5t9 -13q0 -21 -62 -21q-76 0 -73 74l-2 6
q-46 -84 -154 -84q-84 0 -134.5 59.5t-50.5 168.5v177q0 22 -18.5 37t-18.5 21v3q0 12 15 15l84 15q27 5 27 -12l-1 -263q0 -87 30.5 -134.5t87.5 -47.5q54 0 90.5 42t36.5 110v214q0 21 -19.5 36t-19.5 22v3q0 12 15 15l85 15q26 5 26 -12v-388z" />
    <glyph glyph-name="Uogonek" unicode="&#x172;" horiz-adv-x="743" 
d="M703 18q0 -19 -38 -22q-63 -65 -63 -117q0 -23 11 -36t29 -13q12 0 27 6t18 -12t-11 -25q-16 -10 -48 -10q-37 0 -64.5 20.5t-27.5 57.5q0 33 24.5 66.5t63.5 60.5q-32 1 -46.5 21t-13.5 82l-3 13q-60 -120 -224 -120q-115 0 -183.5 75t-68.5 204v354q0 16 -9 27.5
t-18 18.5t-9 13v3q0 12 15 15l86 17q29 6 29 -12l-2 -446q0 -106 48.5 -168t131.5 -62q92 0 145.5 57.5t53.5 147.5v389q0 16 -10 27.5t-20.5 18.5t-10.5 13v3q0 11 17 15l85 17q27 5 27 -12v-619q0 -24 9 -36.5t20.5 -13t20.5 -4.5t9 -14z" />
    <glyph glyph-name="uogonek" unicode="&#x173;" horiz-adv-x="565" 
d="M542 15q0 -20 -55 -21q-55 -60 -55 -108q0 -23 11 -36t29 -13q7 0 27 6q15 6 18 -12t-10 -25q-20 -10 -48 -10q-38 0 -65.5 20.5t-27.5 57.5q0 65 83 124q-45 12 -42 70l-2 6q-46 -84 -154 -84q-84 0 -134.5 59.5t-50.5 168.5v177q0 22 -18.5 37t-18.5 21v3q0 12 15 15
l84 15q27 5 27 -12l-1 -263q0 -87 30.5 -134.5t87.5 -47.5q54 0 90.5 42t36.5 110v214q0 21 -19.5 36t-19.5 22v3q0 12 15 15l85 15q26 5 26 -12v-388q0 -25 9 -38t19 -14.5t19 -5.5t9 -13z" />
    <glyph glyph-name="Wcircumflex" unicode="&#x174;" horiz-adv-x="964" 
d="M380 765q-14 -9 -25.5 2.5t3.5 25.5l110 101q15 14 30 14h19q14 0 30 -14l115 -101q15 -14 5 -26.5t-28 -1.5l-134 77zM942 710q18 0 18 -11v-3q0 -10 -19 -22.5t-27 -33.5l-230 -614q-10 -26 -37 -26q-22 0 -34 25l-113 287l-123 -286q-12 -26 -41 -26q-25 0 -36 25
l-254 614q-9 21 -29 33.5t-20 22.5v3q0 12 18 12h139q18 0 18 -12v-3q0 -8 -11.5 -14t-19.5 -15.5t-1 -26.5l217 -538l117 276l-103 263q-9 23 -27 35.5t-18 20.5v3q0 11 16 11h81q17 0 23 -17l76 -204l87 205q8 16 24 16h46q19 0 19 -11v-3q0 -9 -10 -13.5t-24 -13.5
t-21 -25l-96 -223l115 -309l197 528q6 15 -3 24.5t-21 16t-12 14.5v2q0 13 20 13h99z" />
    <glyph glyph-name="wcircumflex" unicode="&#x175;" horiz-adv-x="796" 
d="M276 555q-15 -8 -26 3.5t4 25.5l110 100q13 14 30 14h18q16 0 31 -14l115 -100q15 -14 5 -26.5t-29 -2.5l-133 77zM671 490q37 0 61 -41t24 -120q0 -154 -73.5 -246.5t-168.5 -92.5q-103 0 -130 103q-58 -103 -172 -103q-64 0 -104 42.5t-40 131.5v231q0 22 -18 37
t-18 21v3q0 12 14 15l84 15q28 5 28 -15l-2 -337q0 -105 70 -105q66 0 108 63t42 148v155q0 22 -18.5 37t-18.5 21v3q0 12 15 15l79 17q27 6 27 -17l-1 -336q-2 -106 71 -106q61 0 117 74.5t56 182.5q0 33 -11.5 58.5t-26 38t-26 29.5t-11.5 36t11.5 30.5t31.5 11.5z" />
    <glyph glyph-name="Ycircumflex" unicode="&#x176;" horiz-adv-x="660" 
d="M211 765q-14 -9 -25.5 2.5t3.5 25.5l110 101q14 14 30 14h19q14 0 30 -14l115 -101q15 -14 5 -26.5t-29 -1.5l-133 77zM631 710q20 0 20 -11v-3q0 -9 -20.5 -22t-32.5 -34l-216 -353v-217q0 -15 9.5 -25t19 -17t9.5 -14v-2q0 -12 -19 -12h-126q-20 0 -20 12v2
q0 7 18 21.5t18 34.5v211l-232 359q-11 18 -33 32.5t-22 23.5v2q0 12 20 12h146q20 0 20 -12v-2q0 -7 -12.5 -15.5t-19 -15.5t0.5 -25l195 -321l195 321q8 19 0.5 26t-21 15t-13.5 15v2q0 12 18 12h98z" />
    <glyph glyph-name="ycircumflex" unicode="&#x177;" horiz-adv-x="545" 
d="M151 557q-14 -8 -25.5 3.5t2.5 25.5l110 101q14 13 31 13h18q16 0 30 -13l115 -101q15 -14 5.5 -26.5t-28.5 -2.5l-133 78zM457 488q27 4 27 -14v-431q0 -119 -62 -182t-165 -63q-89 0 -145.5 46.5t-56.5 99.5q0 16 11 26.5t29 10.5q16 0 27 -15.5t19.5 -37.5t21.5 -44
t40.5 -38t67.5 -16q125 0 125 203v41q-47 -74 -147 -74q-81 0 -132 60t-51 158v177q0 22 -18.5 37t-18.5 21v3q0 12 15 15l84 15q27 5 27 -12l-1 -263q0 -80 30.5 -126t84.5 -46t90.5 41.5t36.5 106.5v208q0 21 -19 36t-19 22v3q0 12 14 15z" />
    <glyph glyph-name="Ydieresis" unicode="&#x178;" horiz-adv-x="660" 
d="M248 791q-28 0 -45.5 16t-17.5 42t17.5 42t45.5 16q27 0 43.5 -16t16.5 -42t-16.5 -42t-43.5 -16zM438 791q-28 0 -44.5 16t-16.5 42t16.5 42t44.5 16q26 0 43.5 -16.5t17.5 -41.5t-17.5 -41.5t-43.5 -16.5zM631 710q20 0 20 -11v-3q0 -9 -20.5 -22t-32.5 -34l-216 -353
v-217q0 -15 9.5 -25t19 -17t9.5 -14v-2q0 -12 -19 -12h-126q-20 0 -20 12v2q0 7 18 21.5t18 34.5v211l-232 359q-11 18 -33 32.5t-22 23.5v2q0 12 20 12h146q20 0 20 -12v-2q0 -7 -12.5 -15.5t-19 -15.5t0.5 -25l195 -321l195 321q8 19 0.5 26t-21 15t-13.5 15v2q0 12 18 12
h98z" />
    <glyph glyph-name="Zacute" unicode="&#x179;" horiz-adv-x="604" 
d="M220 782q-19 -2 -24 12t10 22l199 88q24 12 34 -15l8 -34q4 -11 -1.5 -19t-18.5 -9zM577 148q21 0 16 -20l-28 -107q-7 -21 -24 -21h-499q-8 0 -14 5.5t-6 12.5v6q0 8 13 27l424 618h-314q-15 0 -29.5 -16t-23.5 -35.5t-21 -35.5t-24 -16h-4q-20 0 -15 24l27 98
q5 22 25 22h466q8 0 13.5 -5.5t5.5 -12.5v-9q0 -7 -15 -29l-422 -613h338q19 0 36 16.5t27.5 37t22.5 37t23 16.5h2z" />
    <glyph glyph-name="zacute" unicode="&#x17a;" horiz-adv-x="476" 
d="M175 557q-17 -6 -25 7q-7 12 5 24l177 126q22 17 36 -7l16 -32q12 -23 -14 -32zM451 131q19 0 12 -21l-27 -89q-7 -21 -24 -21h-367q-8 0 -14 5.5t-6 12.5v6q0 6 13 27l297 399h-185q-17 0 -32.5 -15t-24.5 -33.5t-20.5 -33.5t-22.5 -15h-4q-20 0 -12 24l25 81
q8 22 26 22h328q7 0 12.5 -5t5.5 -13v-9q0 -8 -16 -29l-296 -394h217q20 0 37 16t27 34.5t22.5 34.5t23.5 16h5z" />
    <glyph glyph-name="Zdotaccent" unicode="&#x17b;" horiz-adv-x="604" 
d="M316 776q-29 0 -47 16.5t-18 43.5t18 44t47 17q28 0 45.5 -17t17.5 -44t-17.5 -43.5t-45.5 -16.5zM577 148q21 0 16 -20l-28 -107q-7 -21 -24 -21h-499q-8 0 -14 5.5t-6 12.5v6q0 8 13 27l424 618h-314q-15 0 -29.5 -16t-23.5 -35.5t-21 -35.5t-24 -16h-4q-20 0 -15 24
l27 98q5 22 25 22h466q8 0 13.5 -5.5t5.5 -12.5v-9q0 -7 -15 -29l-422 -613h338q19 0 36 16.5t27.5 37t22.5 37t23 16.5h2z" />
    <glyph glyph-name="zdotaccent" unicode="&#x17c;" horiz-adv-x="476" 
d="M260 575q-31 0 -49.5 17t-18.5 45t18.5 45.5t49.5 17.5q29 0 47 -17.5t18 -45.5t-18 -45t-47 -17zM451 131q19 0 12 -21l-27 -89q-7 -21 -24 -21h-367q-8 0 -14 5.5t-6 12.5v6q0 6 13 27l297 399h-185q-17 0 -32.5 -15t-24.5 -33.5t-20.5 -33.5t-22.5 -15h-4
q-20 0 -12 24l25 81q8 22 26 22h328q7 0 12.5 -5t5.5 -13v-9q0 -8 -16 -29l-296 -394h217q20 0 37 16t27 34.5t22.5 34.5t23.5 16h5z" />
    <glyph glyph-name="Zcaron" unicode="&#x17d;" horiz-adv-x="604" 
d="M269 761l-114 106q-7 7 -3.5 15t12 10.5t16.5 -1.5l132 -84l131 84q8 5 17 1.5t11.5 -11t-3.5 -14.5l-117 -106q-16 -13 -31 -13h-20q-15 0 -31 13zM577 148q21 0 16 -20l-28 -107q-7 -21 -24 -21h-499q-8 0 -14 5.5t-6 12.5v6q0 8 13 27l424 618h-314q-15 0 -29.5 -16
t-23.5 -35.5t-21 -35.5t-24 -16h-4q-20 0 -15 24l27 98q5 22 25 22h466q8 0 13.5 -5.5t5.5 -12.5v-9q0 -7 -15 -29l-422 -613h338q19 0 36 16.5t27.5 37t22.5 37t23 16.5h2z" />
    <glyph glyph-name="zcaron" unicode="&#x17e;" horiz-adv-x="476" 
d="M217 569l-114 109q-7 7 -3.5 15t12 10.5t16.5 -1.5l131 -87l131 87q8 6 17.5 2t11.5 -11.5t-4 -14.5l-117 -109q-14 -14 -30 -14h-20q-16 0 -31 14zM451 131q19 0 12 -21l-27 -89q-7 -21 -24 -21h-367q-8 0 -14 5.5t-6 12.5v6q0 6 13 27l297 399h-185q-17 0 -32.5 -15
t-24.5 -33.5t-20.5 -33.5t-22.5 -15h-4q-20 0 -12 24l25 81q8 22 26 22h328q7 0 12.5 -5t5.5 -13v-9q0 -8 -16 -29l-296 -394h217q20 0 37 16t27 34.5t22.5 34.5t23.5 16h5z" />
    <glyph glyph-name="uni01EA" unicode="&#x1ea;" horiz-adv-x="771" 
d="M734 351q0 -133 -79.5 -233.5t-202.5 -122.5q-63 -65 -63 -116q0 -23 11 -36t29 -13q12 0 27 6t18 -12t-10 -25q-17 -10 -48 -10q-38 0 -65.5 20.5t-27.5 57.5q0 64 83 123h-12q-154 0 -255 109t-101 258q0 157 98 260t251 103q151 0 249 -108t98 -261zM128 418
q0 -159 81.5 -272t206.5 -113q98 0 163 77t65 181q0 162 -81 274t-207 112q-100 0 -164 -74t-64 -185z" />
    <glyph glyph-name="uni01EB" unicode="&#x1eb;" horiz-adv-x="565" 
d="M530 236q0 -98 -57.5 -166.5t-150.5 -78.5q-54 -59 -54 -107q0 -23 10.5 -36t28.5 -13q12 0 27 6t18 -12t-10 -25q-17 -10 -48 -10q-37 0 -64.5 20.5t-27.5 57.5q0 62 75 118q-109 7 -176.5 81.5t-67.5 175.5q0 104 70 173.5t173 69.5q111 0 182.5 -73.5t71.5 -180.5z
M122 275q0 -100 52 -176t132 -76q59 0 97.5 50t38.5 133q0 106 -50 178.5t-126 72.5q-64 0 -104 -49.5t-40 -132.5z" />
    <glyph glyph-name="AEacute" unicode="&#x1fc;" horiz-adv-x="930" 
d="M485 782q-19 -2 -24 12t10 22l198 88q26 12 34 -15l9 -34q3 -11 -2.5 -19t-17.5 -9zM899 141q16 0 11 -17l-25 -101q-3 -23 -25 -23h-413q-21 0 -21 12v2q0 9 18.5 23.5t18.5 33.5v118h-261l-70 -119q-7 -18 -1 -25t17 -15t11 -15v-2q0 -13 -20 -13h-124q-21 0 -21 13v2
q0 6 5.5 11t13.5 9t18.5 13t18.5 22l333 555q10 22 5 32t-16 20.5t-11 16.5v4q0 12 18 12h452q20 0 26 -22l23 -97q2 -9 -2 -14t-11 -5h-5q-10 0 -22 15t-22 33.5t-26.5 33.5t-34.5 15h-183q-28 0 -28 -35v-248h188q13 0 22.5 9t14.5 20t11 20t12 9h4q13 0 13 -20v-116
q0 -20 -13 -20h-4q-6 0 -12 8.5t-11 19t-14.5 19t-22.5 8.5h-188v-262q0 -19 10 -30t26 -11h205q19 0 36 16t27 34.5t22 34.5t22 16h5zM228 233h235v402z" />
    <glyph glyph-name="aeacute" unicode="&#x1fd;" horiz-adv-x="806" 
d="M350 557q-17 -7 -26 6q-8 14 5 24l177 126q23 17 36 -7l16 -32q12 -22 -14 -32zM747 150q7 12 19.5 8.5t10.5 -17.5q-12 -58 -65 -103t-137 -45q-63 0 -113.5 30t-80.5 83q-10 -50 -51.5 -83t-106.5 -33q-83 0 -135 41t-52 110q0 68 50.5 108t133.5 40q79 0 124 -40
l-2 27q-9 92 -38 137t-86 45q-35 0 -57 -18t-29.5 -39t-20.5 -39t-31 -18t-28.5 10.5t-10.5 27.5q0 43 53 75.5t124 32.5q118 0 173 -93q67 96 187 96q84 0 135.5 -46.5t51.5 -105.5q0 -44 -45 -58l-278 -92q18 -62 61.5 -98t103.5 -36q93 0 140 93zM561 460
q-58 0 -94.5 -51.5t-36.5 -129.5q0 -31 4 -54l221 79q25 10 25 37q0 38 -35 78.5t-84 40.5zM245 23q49 0 79.5 36.5t29.5 81.5l-1 20h-1q-2 42 -33 68.5t-80 26.5q-50 0 -81.5 -27t-31.5 -70q0 -59 32.5 -97.5t86.5 -38.5z" />
    <glyph glyph-name="Oslashacute" unicode="&#x1fe;" horiz-adv-x="787" 
d="M306 782q-19 -2 -24 12t10 22l199 88q25 12 33 -15l9 -34q4 -11 -1.5 -19t-18.5 -9zM665 588q78 -100 78 -237q0 -149 -98.5 -255t-241.5 -106q-151 0 -254 108l-74 -71q-11 -7 -18 0l-15 14q-7 7 4 18l75 72q-74 99 -74 226q0 157 98 260t251 103q144 0 241 -100l62 59
q12 12 21 3l13 -12q9 -8 -3 -20zM137 418q0 -123 52 -224l386 367q-83 116 -210 116q-100 0 -164 -74t-64 -185zM425 33q98 0 163 77t65 181q0 131 -55 233l-387 -368q84 -123 214 -123z" />
    <glyph glyph-name="oslashacute" unicode="&#x1ff;" horiz-adv-x="574" 
d="M203 557q-18 -5 -26 7q-7 12 5 24l177 126q23 18 36 -7l16 -32q5 -10 1.5 -19t-15.5 -13zM537 470q8 -8 -2 -20l-55 -53q55 -69 55 -161q0 -105 -66 -175.5t-170 -70.5t-177 65l-60 -58q-8 -7 -15 0l-14 13q-8 8 3 18l58 56q-56 70 -56 163q0 104 70 173.5t173 69.5
q101 0 170 -63l54 52q11 11 21 2zM126 275q0 -71 28 -133l246 236q-50 79 -130 79q-64 0 -104 -49.5t-40 -132.5zM446 206q0 76 -26 134l-245 -235q54 -82 136 -82q59 0 97 50t38 133z" />
    <glyph glyph-name="uni0218" unicode="&#x218;" horiz-adv-x="608" 
d="M315 -10q-132 0 -207 59.5t-75 116.5q0 18 10 29t28 11q19 -1 33.5 -19.5t28 -44.5t32.5 -51.5t58.5 -43.5t95.5 -18q71 0 115.5 37.5t44.5 96.5q0 50 -23.5 82t-61 46.5t-83 23.5t-91.5 20t-83.5 29.5t-61 58.5t-23.5 101q0 86 66.5 140.5t182.5 54.5q118 0 188.5 -52
t70.5 -111q0 -40 -41 -40q-20 0 -33.5 17t-24.5 41t-27 48t-50.5 41t-85.5 17q-73 0 -114 -38t-41 -97q0 -47 23.5 -77t61.5 -44t83.5 -23.5t91 -21.5t83.5 -31.5t61.5 -61t23.5 -102.5q0 -88 -74 -141t-182 -53zM283 -297q-11 -7 -19.5 2t1.5 18q44 43 53 85q4 14 -8 14
q-21 0 -34.5 16t-13.5 41q0 27 16 44t42 17t43.5 -19t17.5 -51q0 -98 -98 -167z" />
    <glyph glyph-name="uni0219" unicode="&#x219;" horiz-adv-x="467" 
d="M234 -9q-92 0 -147.5 37t-55.5 77q0 37 39 37q17 0 27.5 -12.5t18.5 -30.5t19.5 -36t36.5 -30.5t62 -12.5q50 0 82 23.5t32 64.5q0 40 -31.5 62t-76.5 31.5t-90 21.5t-76.5 44t-31.5 86q0 58 53 97.5t135 39.5q87 0 141 -37t54 -81q0 -15 -10.5 -25t-25.5 -10
q-18 0 -31 19t-21.5 42t-34.5 42t-68 19q-44 0 -73.5 -25t-29.5 -62q0 -39 31.5 -60.5t76.5 -31.5t89.5 -22t76 -44.5t31.5 -87.5q0 -58 -55.5 -96.5t-146.5 -38.5zM202 -297q-10 -7 -18.5 2t1.5 18q42 41 53 85q4 14 -9 14q-20 0 -33.5 16t-13.5 41q0 27 16 44t42 17
t43 -19t17 -51q0 -99 -98 -167z" />
    <glyph glyph-name="uni021A" unicode="&#x21a;" horiz-adv-x="608" 
d="M238 0q-20 0 -20 12v2q0 7 18.5 21.5t18.5 34.5v597h-136q-17 0 -30.5 -17t-20.5 -37t-16.5 -37t-18.5 -17h-9q-16 0 -13 20l16 109q3 22 25 22h497q21 0 26 -22l22 -110q4 -19 -12 -19h-10q-9 0 -19.5 17t-18.5 37t-22.5 37t-31.5 17h-138v-597q0 -15 9.5 -25t19.5 -17
t10 -14v-2q0 -12 -21 -12h-125zM271 -297q-10 -7 -19 2t1 18q44 42 53 85q4 14 -8 14q-21 0 -34.5 16t-13.5 41q0 27 16 44t42 17t43.5 -19t17.5 -51q0 -99 -98 -167z" />
    <glyph glyph-name="uni021B" unicode="&#x21b;" horiz-adv-x="356" 
d="M217 -10q-60 0 -94.5 38.5t-34.5 112.5v299h-66q-15 0 -15 15v10q0 15 15 15h36q68 0 76 95q2 20 17 20h10q16 0 16 -20l1 -95h138q6 0 10.5 -4.5t4.5 -10.5v-10q0 -15 -15 -15h-138v-300q0 -40 17 -62t46 -22q32 0 51.5 16.5t22.5 43.5q5 12 17.5 10.5t12.5 -14.5
q0 -49 -35.5 -85.5t-92.5 -36.5zM172 -291q-10 -6 -18 3t1 18q42 40 53 85q2 13 -9 13q-20 0 -33.5 16t-13.5 41q0 27 16 44.5t42 17.5t43 -19t17 -51q0 -100 -98 -168z" />
    <glyph glyph-name="uni0237" unicode="&#x237;" horiz-adv-x="240" 
d="M53 -184q-49 0 -80 22t-31 58q0 17 11 28t29 11q19 0 30 -13t14 -29t13 -29t29 -13q21 0 33.5 15t12.5 39q0 25 -14 62t-14 59v343q0 23 -18 39t-18 22v3q0 7 14 15l80 38q15 7 23.5 2t8.5 -16v-469q0 -58 -17 -111q-25 -76 -106 -76z" />
    <glyph glyph-name="circumflex" unicode="&#x2c6;" 
d="M351 583q15 -13 5 -25.5t-28 -2.5l-133 77l-126 -77q-14 -9 -25 2.5t3 25.5l110 101q15 14 31 14h18q14 0 30 -14z" />
    <glyph glyph-name="caron" unicode="&#x2c7;" 
d="M330 700q9 5 18 1t11 -11.5t-4 -14.5l-117 -109q-13 -13 -30 -13h-20q-17 0 -31 13l-114 109q-11 11 1 22t24 3l131 -87z" />
    <glyph glyph-name="breve" unicode="&#x2d8;" 
d="M224 563q-61 0 -103.5 35.5t-50.5 86.5q-2 17 14.5 21.5t21.5 -7.5q10 -34 43 -54.5t75 -20.5q43 0 76.5 20.5t43.5 54.5q5 11 21.5 6.5t14.5 -20.5q-7 -51 -50 -86.5t-106 -35.5z" />
    <glyph glyph-name="dotaccent" unicode="&#x2d9;" 
d="M148 575q-31 0 -49.5 17t-18.5 45t18.5 45.5t49.5 17.5q29 0 47 -17.5t18 -45.5t-18 -45t-47 -17z" />
    <glyph glyph-name="ring" unicode="&#x2da;" 
d="M212 542q-50 0 -83 28.5t-33 70.5q0 44 32.5 73t84.5 29q50 0 83.5 -28.5t33.5 -70.5q0 -44 -32.5 -73t-85.5 -29zM213 573q27 0 43.5 19t16.5 51q0 29 -17 48t-43 19q-27 0 -43.5 -18.5t-16.5 -48.5t17 -50t43 -20z" />
    <glyph glyph-name="ogonek" unicode="&#x2db;" 
d="M329 -213q-38 0 -65.5 21t-27.5 58q0 35 28.5 71t73.5 64h35q-71 -66 -71 -123q0 -24 11 -36.5t29 -12.5q12 0 27 6t18 -12q4 -19 -11 -25q-17 -11 -47 -11z" />
    <glyph glyph-name="tilde" unicode="&#x2dc;" 
d="M175 705q34 0 84 -28.5t69 -28.5q35 0 51 35q5 12 16 12h7q15 0 10 -17q-23 -92 -96 -92q-32 0 -81 29t-71 29q-33 0 -51 -36q-9 -15 -16 -15h-9q-13 0 -10 17q8 42 32.5 68.5t64.5 26.5z" />
    <glyph glyph-name="hungarumlaut" unicode="&#x2dd;" 
d="M54 549q-9 8 2 24l113 159q15 23 33 7l19 -18q20 -19 1 -35l-144 -132q-15 -13 -24 -5zM235 549q-8 7 2 23l114 160q16 23 33 6l19 -18q21 -19 0 -35l-143 -132q-15 -11 -25 -4z" />
    <glyph glyph-name="gravecomb" unicode="&#x300;" horiz-adv-x="0" 
d="M-267 554l-195 86q-25 8 -13 32l16 32q13 24 36 7l176 -126q13 -11 5 -24t-25 -7z" />
    <glyph glyph-name="acutecomb" unicode="&#x301;" horiz-adv-x="0" 
d="M-331 555q-17 -7 -26 6q-6 14 6 24l176 126q23 17 36 -7l16 -32q12 -22 -14 -32z" />
    <glyph glyph-name="uni0302" unicode="&#x302;" horiz-adv-x="0" 
d="M-49 583q15 -13 5 -25.5t-28 -2.5l-133 77l-126 -77q-14 -9 -25 2.5t3 25.5l110 101q15 14 31 14h18q14 0 30 -14z" />
    <glyph glyph-name="tildecomb" unicode="&#x303;" horiz-adv-x="0" 
d="M-425 705q34 0 84 -28.5t69 -28.5q35 0 51 35q5 12 16 12h7q15 0 10 -17q-23 -92 -96 -92q-32 0 -81 29t-71 29q-33 0 -51 -36q-9 -15 -16 -15h-9q-13 0 -10 17q8 42 32.5 68.5t64.5 26.5z" />
    <glyph glyph-name="uni0304" unicode="&#x304;" horiz-adv-x="0" 
d="M-430 602q-18 0 -18 15v28q0 15 18 15h262q18 0 18 -15v-28q0 -15 -18 -15h-262z" />
    <glyph glyph-name="uni0306" unicode="&#x306;" horiz-adv-x="0" 
d="M-311 563q-61 0 -103.5 35.5t-50.5 86.5q-2 17 14.5 21.5t21.5 -7.5q10 -34 43 -54.5t75 -20.5q43 0 76.5 20.5t43.5 54.5q5 11 21.5 6.5t14.5 -20.5q-7 -51 -50 -86.5t-106 -35.5z" />
    <glyph glyph-name="uni0307" unicode="&#x307;" horiz-adv-x="0" 
d="M-148 575q-31 0 -49.5 17t-18.5 45t18.5 45.5t49.5 17.5q29 0 47 -17.5t18 -45.5t-18 -45t-47 -17z" />
    <glyph glyph-name="uni0308" unicode="&#x308;" horiz-adv-x="0" 
d="M-415 577q-28 0 -45 16t-17 42t17 42t45 16q27 0 43.5 -16t16.5 -42t-16.5 -42t-43.5 -16zM-224 577q-28 0 -45 16t-17 42t17 42t45 16q26 0 43.5 -16.5t17.5 -41.5t-17.5 -41.5t-43.5 -16.5z" />
    <glyph glyph-name="uni030A" unicode="&#x30a;" horiz-adv-x="0" 
d="M-278 542q-50 0 -83 28.5t-33 70.5q0 44 32.5 73t84.5 29q50 0 83.5 -28.5t33.5 -70.5q0 -44 -32.5 -73t-85.5 -29zM-277 573q27 0 43.5 19t16.5 51q0 29 -17 48t-43 19q-27 0 -43.5 -18.5t-16.5 -48.5t17 -50t43 -20z" />
    <glyph glyph-name="uni030B" unicode="&#x30b;" horiz-adv-x="0" 
d="M-406 549q-9 8 2 24l113 159q15 23 33 7l19 -18q20 -19 1 -35l-144 -132q-15 -13 -24 -5zM-225 549q-8 7 2 23l114 160q16 23 33 6l19 -18q21 -19 0 -35l-143 -132q-15 -11 -25 -4z" />
    <glyph glyph-name="uni030C" unicode="&#x30c;" horiz-adv-x="0" 
d="M-70 700q9 5 18 1t11 -11.5t-4 -14.5l-117 -109q-13 -13 -30 -13h-20q-17 0 -31 13l-114 109q-11 11 1 22t24 3l131 -87z" />
    <glyph glyph-name="uni0312" unicode="&#x312;" horiz-adv-x="0" 
d="M-172 452q-10 -6 -18.5 3t0.5 18q45 44 54 87q4 14 -9 14q-21 0 -34.5 16t-13.5 42q0 27 16.5 44.5t42.5 17.5t44 -19t18 -52q0 -101 -100 -171z" />
    <glyph glyph-name="uni0326" unicode="&#x326;" horiz-adv-x="0" 
d="M-274 -297q-10 -7 -19 2t1 18q44 43 53 85q3 14 -8 14q-21 0 -34.5 16t-13.5 41q0 27 16 44t42 17t43.5 -19t17.5 -51q0 -98 -98 -167z" />
    <glyph glyph-name="uni0327" unicode="&#x327;" horiz-adv-x="0" 
d="M-269 -56q45 0 76.5 -19t31.5 -54q0 -34 -33 -54.5t-81 -20.5q-46 0 -82 20q-16 8 -9 27q6 13 17 8q27 -17 61 -17q25 0 42 10t16 30q-1 37 -63 37q-29 0 -23 30l11 59h39z" />
    <glyph glyph-name="uni0328" unicode="&#x328;" horiz-adv-x="0" 
d="M-271 -213q-38 0 -65.5 21t-27.5 58q0 35 28.5 71t73.5 64h35q-71 -66 -71 -123q0 -24 11 -36.5t29 -12.5q12 0 27 6t18 -12q4 -19 -11 -25q-17 -11 -47 -11z" />
    <glyph glyph-name="uni0335" unicode="&#x335;" horiz-adv-x="0" 
d="M-414 271q-15 0 -15 11v17q0 12 15 12h283q15 0 15 -12v-15q0 -13 -15 -13h-283z" />
    <glyph glyph-name="uni0336" unicode="&#x336;" horiz-adv-x="0" 
d="M-686 262q-15 0 -15 13v13q0 13 15 13h683q17 0 17 -13v-13q0 -13 -17 -13h-683z" />
    <glyph glyph-name="uni0337" unicode="&#x337;" horiz-adv-x="0" 
d="M-422 176q-10 -6 -17 3l-10 15q-8 9 4 18l233 155q13 11 22 -1l9 -15q7 -11 -5 -19z" />
    <glyph glyph-name="uni0338" unicode="&#x338;" horiz-adv-x="0" 
d="M-553 25l-13 13q-8 8 3 18l468 451q11 10 22 2l10 -11q9 -7 -2 -20l-472 -453q-9 -7 -16 0z" />
    <glyph glyph-name="Wgrave" unicode="&#x1e80;" horiz-adv-x="964" 
d="M381 831q-27 5 -20 29l10 34q8 26 34 14l197 -90q15 -8 10 -23q-6 -13 -24 -11zM942 710q18 0 18 -11v-3q0 -10 -19 -22.5t-27 -33.5l-230 -614q-10 -26 -37 -26q-22 0 -34 25l-113 287l-123 -286q-12 -26 -41 -26q-25 0 -36 25l-254 614q-9 21 -29 33.5t-20 22.5v3
q0 12 18 12h139q18 0 18 -12v-3q0 -8 -11.5 -14t-19.5 -15.5t-1 -26.5l217 -538l117 276l-103 263q-9 23 -27 35.5t-18 20.5v3q0 11 16 11h81q17 0 23 -17l76 -204l87 205q8 16 24 16h46q19 0 19 -11v-3q0 -9 -10 -13.5t-24 -13.5t-21 -25l-96 -223l115 -309l197 528
q6 15 -3 24.5t-21 16t-12 14.5v2q0 13 20 13h99z" />
    <glyph glyph-name="wgrave" unicode="&#x1e81;" horiz-adv-x="796" 
d="M298 638q-26 8 -14 31l16 33q13 24 36 7l176 -126q13 -11 5 -25q-7 -11 -25 -6zM671 490q37 0 61 -41t24 -120q0 -154 -73.5 -246.5t-168.5 -92.5q-103 0 -130 103q-58 -103 -172 -103q-64 0 -104 42.5t-40 131.5v231q0 22 -18 37t-18 21v3q0 12 14 15l84 15q28 5 28 -15
l-2 -337q0 -105 70 -105q66 0 108 63t42 148v155q0 22 -18.5 37t-18.5 21v3q0 12 15 15l79 17q27 6 27 -17l-1 -336q-2 -106 71 -106q61 0 117 74.5t56 182.5q0 33 -11.5 58.5t-26 38t-26 29.5t-11.5 36t11.5 30.5t31.5 11.5z" />
    <glyph glyph-name="Wacute" unicode="&#x1e82;" horiz-adv-x="964" 
d="M419 782q-19 -2 -24 12t10 22l198 88q26 12 34 -15l9 -34q3 -11 -2.5 -19t-17.5 -9zM942 710q18 0 18 -11v-3q0 -10 -19 -22.5t-27 -33.5l-230 -614q-10 -26 -37 -26q-22 0 -34 25l-113 287l-123 -286q-12 -26 -41 -26q-25 0 -36 25l-254 614q-9 21 -29 33.5t-20 22.5v3
q0 12 18 12h139q18 0 18 -12v-3q0 -8 -11.5 -14t-19.5 -15.5t-1 -26.5l217 -538l117 276l-103 263q-9 23 -27 35.5t-18 20.5v3q0 11 16 11h81q17 0 23 -17l76 -204l87 205q8 16 24 16h46q19 0 19 -11v-3q0 -9 -10 -13.5t-24 -13.5t-21 -25l-96 -223l115 -309l197 528
q6 15 -3 24.5t-21 16t-12 14.5v2q0 13 20 13h99z" />
    <glyph glyph-name="wacute" unicode="&#x1e83;" horiz-adv-x="796" 
d="M321 555q-18 -6 -26 7q-7 13 6 24l176 126q23 17 37 -7l15 -32q5 -10 1.5 -19t-15.5 -13zM671 490q37 0 61 -41t24 -120q0 -154 -73.5 -246.5t-168.5 -92.5q-103 0 -130 103q-58 -103 -172 -103q-64 0 -104 42.5t-40 131.5v231q0 22 -18 37t-18 21v3q0 12 14 15l84 15
q28 5 28 -15l-2 -337q0 -105 70 -105q66 0 108 63t42 148v155q0 22 -18.5 37t-18.5 21v3q0 12 15 15l79 17q27 6 27 -17l-1 -336q-2 -106 71 -106q61 0 117 74.5t56 182.5q0 33 -11.5 58.5t-26 38t-26 29.5t-11.5 36t11.5 30.5t31.5 11.5z" />
    <glyph glyph-name="Wdieresis" unicode="&#x1e84;" horiz-adv-x="964" 
d="M417 791q-28 0 -45 16t-17 42t17 42t45 16q27 0 43.5 -16t16.5 -42t-16.5 -42t-43.5 -16zM607 791q-28 0 -44.5 16t-16.5 42t16.5 42t44.5 16q27 0 44 -16t17 -42t-17 -42t-44 -16zM942 710q18 0 18 -11v-3q0 -10 -19 -22.5t-27 -33.5l-230 -614q-10 -26 -37 -26
q-22 0 -34 25l-113 287l-123 -286q-12 -26 -41 -26q-25 0 -36 25l-254 614q-9 21 -29 33.5t-20 22.5v3q0 12 18 12h139q18 0 18 -12v-3q0 -8 -11.5 -14t-19.5 -15.5t-1 -26.5l217 -538l117 276l-103 263q-9 23 -27 35.5t-18 20.5v3q0 11 16 11h81q17 0 23 -17l76 -204
l87 205q8 16 24 16h46q19 0 19 -11v-3q0 -9 -10 -13.5t-24 -13.5t-21 -25l-96 -223l115 -309l197 528q6 15 -3 24.5t-21 16t-12 14.5v2q0 13 20 13h99z" />
    <glyph glyph-name="wdieresis" unicode="&#x1e85;" horiz-adv-x="796" 
d="M312 575q-28 0 -45.5 16t-17.5 42t17.5 42t45.5 16q27 0 43 -16t16 -42t-16 -42t-43 -16zM502 575q-28 0 -44.5 16t-16.5 42t16.5 42t44.5 16q26 0 43.5 -16.5t17.5 -41.5t-17.5 -41.5t-43.5 -16.5zM671 490q37 0 61 -41t24 -120q0 -154 -73.5 -246.5t-168.5 -92.5
q-103 0 -130 103q-58 -103 -172 -103q-64 0 -104 42.5t-40 131.5v231q0 22 -18 37t-18 21v3q0 12 14 15l84 15q28 5 28 -15l-2 -337q0 -105 70 -105q66 0 108 63t42 148v155q0 22 -18.5 37t-18.5 21v3q0 12 15 15l79 17q27 6 27 -17l-1 -336q-2 -106 71 -106q61 0 117 74.5
t56 182.5q0 33 -11.5 58.5t-26 38t-26 29.5t-11.5 36t11.5 30.5t31.5 11.5z" />
    <glyph glyph-name="uni1E9E" unicode="&#x1e9e;" horiz-adv-x="653" 
d="M424 410q86 -8 141 -63.5t55 -144.5q0 -94 -68 -148t-176 -54q-12 0 -16.5 11t0 21.5t14.5 10.5q67 0 110.5 37.5t43.5 109.5q0 78 -38 134.5t-103 56.5q-20 0 -23.5 16.5t7.5 24.5l126 122q0 58 -44 96t-128 38q-73 0 -117.5 -49.5t-44.5 -130.5v-425q0 -17 11 -27
t22 -17t11 -15v-3q0 -8 -3 -9.5t-12 -1.5h-143q-15 0 -15 11v3q0 7 19 22t19 37v417q0 103 71.5 166.5t185.5 63.5q108 0 176.5 -47t76.5 -113q4 -21 -15 -38z" />
    <glyph glyph-name="Ygrave" unicode="&#x1ef2;" horiz-adv-x="660" 
d="M211 831q-26 5 -19 29l10 34q8 26 34 14l197 -90q16 -8 9 -23q-5 -13 -24 -11zM631 710q20 0 20 -11v-3q0 -9 -20.5 -22t-32.5 -34l-216 -353v-217q0 -15 9.5 -25t19 -17t9.5 -14v-2q0 -12 -19 -12h-126q-20 0 -20 12v2q0 7 18 21.5t18 34.5v211l-232 359
q-11 18 -33 32.5t-22 23.5v2q0 12 20 12h146q20 0 20 -12v-2q0 -7 -12.5 -15.5t-19 -15.5t0.5 -25l195 -321l195 321q8 19 0.5 26t-21 15t-13.5 15v2q0 12 18 12h98z" />
    <glyph glyph-name="ygrave" unicode="&#x1ef3;" horiz-adv-x="545" 
d="M172 640q-24 8 -14 32l17 32q12 25 36 7l176 -126q13 -11 5 -24t-26 -7zM457 488q27 4 27 -14v-431q0 -119 -62 -182t-165 -63q-89 0 -145.5 46.5t-56.5 99.5q0 16 11 26.5t29 10.5q16 0 27 -15.5t19.5 -37.5t21.5 -44t40.5 -38t67.5 -16q125 0 125 203v41
q-47 -74 -147 -74q-81 0 -132 60t-51 158v177q0 22 -18.5 37t-18.5 21v3q0 12 15 15l84 15q27 5 27 -12l-1 -263q0 -80 30.5 -126t84.5 -46t90.5 41.5t36.5 106.5v208q0 21 -19 36t-19 22v3q0 12 14 15z" />
    <glyph glyph-name="uni1EF8" unicode="&#x1ef8;" horiz-adv-x="660" 
d="M188 782q-13 0 -10 17q8 42 32.5 68.5t64.5 26.5q34 0 84.5 -28.5t68.5 -28.5q35 0 51 34q5 13 16 13h7q15 0 10 -17q-22 -93 -95 -93q-32 0 -81.5 29t-71.5 29q-34 0 -51 -35q-7 -15 -16 -15h-9zM631 710q20 0 20 -11v-3q0 -9 -20.5 -22t-32.5 -34l-216 -353v-217
q0 -15 9.5 -25t19 -17t9.5 -14v-2q0 -12 -19 -12h-126q-20 0 -20 12v2q0 7 18 21.5t18 34.5v211l-232 359q-11 18 -33 32.5t-22 23.5v2q0 12 20 12h146q20 0 20 -12v-2q0 -7 -12.5 -15.5t-19 -15.5t0.5 -25l195 -321l195 321q8 19 0.5 26t-21 15t-13.5 15v2q0 12 18 12h98z
" />
    <glyph glyph-name="uni1EF9" unicode="&#x1ef9;" horiz-adv-x="545" 
d="M117 596q-14 0 -11 17q8 41 33 68t64 27q35 0 85 -28.5t68 -28.5q36 0 51 34q5 13 17 13h7q13 0 10 -17q-23 -93 -96 -93q-31 0 -81 29t-72 29q-34 0 -51 -35q-7 -15 -16 -15h-8zM457 488q27 4 27 -14v-431q0 -119 -62 -182t-165 -63q-89 0 -145.5 46.5t-56.5 99.5
q0 16 11 26.5t29 10.5q16 0 27 -15.5t19.5 -37.5t21.5 -44t40.5 -38t67.5 -16q125 0 125 203v41q-47 -74 -147 -74q-81 0 -132 60t-51 158v177q0 22 -18.5 37t-18.5 21v3q0 12 15 15l84 15q27 5 27 -12l-1 -263q0 -80 30.5 -126t84.5 -46t90.5 41.5t36.5 106.5v208
q0 21 -19 36t-19 22v3q0 12 14 15z" />
    <glyph glyph-name="endash" unicode="&#x2013;" horiz-adv-x="561" 
d="M70 294q-14 0 -14 15v21q0 13 14 13h421q13 0 13 -13v-21q0 -15 -13 -15h-421z" />
    <glyph glyph-name="emdash" unicode="&#x2014;" horiz-adv-x="695" 
d="M70 294q-14 0 -14 15v21q0 13 14 13h555q14 0 14 -13v-21q0 -15 -14 -15h-555z" />
    <glyph glyph-name="quoteleft" unicode="&#x2018;" horiz-adv-x="203" 
d="M139 766q11 7 19.5 -2t-1.5 -19q-46 -45 -55 -89q-3 -15 8 -15q22 0 36 -16.5t14 -43.5q0 -29 -16.5 -47t-44.5 -18q-26 0 -44.5 20.5t-18.5 53.5q0 105 103 176z" />
    <glyph glyph-name="quoteright" unicode="&#x2019;" horiz-adv-x="212" 
d="M77 474q-11 -6 -19.5 3t0.5 19q45 43 56 89q3 15 -9 15q-21 0 -35.5 16.5t-14.5 42.5q0 29 16.5 47t44.5 18q27 0 45.5 -20t18.5 -54q0 -103 -103 -176z" />
    <glyph glyph-name="quotesinglbase" unicode="&#x201a;" horiz-adv-x="209" 
d="M64 -135q-11 -7 -19.5 2t1.5 19q46 45 55 89q3 15 -8 15q-22 0 -36 16.5t-14 43.5q0 29 16.5 47t44.5 18q26 0 44.5 -20.5t18.5 -53.5q0 -105 -103 -176z" />
    <glyph glyph-name="quotedblleft" unicode="&#x201c;" horiz-adv-x="394" 
d="M138 779q11 7 20 -2.5t-1 -19.5q-46 -43 -56 -89q-3 -15 9 -15q21 0 35.5 -16.5t14.5 -42.5q0 -29 -16.5 -47t-44.5 -18q-27 0 -45.5 20t-18.5 54q0 105 103 176zM331 779q11 7 20 -2.5t-1 -19.5q-47 -43 -56 -89q-3 -15 9 -15q21 0 35 -16.5t14 -42.5q0 -29 -16.5 -47
t-43.5 -18t-45.5 20t-18.5 54q0 105 103 176z" />
    <glyph glyph-name="quotedblright" unicode="&#x201d;" horiz-adv-x="404" 
d="M76 476q-11 -7 -20 2t1 19q46 44 56 90q3 14 -9 14q-21 0 -35.5 16.5t-14.5 43.5q0 29 16.5 47t44.5 18q27 0 45.5 -20t18.5 -54q0 -105 -103 -176zM268 476q-11 -7 -19.5 2t1.5 19q46 45 55 90q3 14 -8 14q-22 0 -36 16.5t-14 43.5q0 29 16.5 47t44.5 18
q26 0 44.5 -20.5t18.5 -53.5q0 -105 -103 -176z" />
    <glyph glyph-name="quotedblbase" unicode="&#x201e;" horiz-adv-x="401" 
d="M64 -135q-11 -7 -19.5 2t1.5 19q46 45 55 89q3 15 -8 15q-22 0 -36 16.5t-14 43.5q0 29 16.5 47t44.5 18q26 0 44.5 -20.5t18.5 -53.5q0 -105 -103 -176zM257 -135q-11 -7 -20 2t1 19q45 43 56 89q3 15 -9 15q-21 0 -35.5 16.5t-14.5 43.5q0 29 16.5 47t44.5 18
q27 0 45.5 -20t18.5 -54q0 -105 -103 -176z" />
    <glyph glyph-name="dagger" unicode="&#x2020;" horiz-adv-x="503" 
d="M455 524q17 1 24 -15.5t-0.5 -33t-23.5 -14.5l-187 14l15 -524q0 -16 -16 -22t-32.5 0.5t-16.5 21.5l15 524l-186 -14q-16 -1 -22.5 15.5t0 32.5t22.5 15l186 -15l-21 260q-3 21 18 29.5t41.5 -0.5t18.5 -29l-22 -260z" />
    <glyph glyph-name="daggerdbl" unicode="&#x2021;" horiz-adv-x="506" 
d="M449 309q17 1 24 -15.5t-0.5 -33t-23.5 -14.5l-174 12l9 -307q0 -16 -16 -22t-32.5 0.5t-15.5 21.5l9 307l-175 -12q-16 -2 -22 14.5t0 33t22 15.5l176 -14l5 180l-181 -14q-16 -1 -22 15t0 32.5t22 15.5l180 -15l-22 260q-2 21 19 29.5t42 -0.5t19 -29l-23 -260l180 15
q17 1 24 -15.5t0 -33t-24 -14.5l-180 14l5 -180z" />
    <glyph glyph-name="bullet" unicode="&#x2022;" horiz-adv-x="354" 
d="M179 278q-49 0 -79.5 28t-30.5 74q0 47 30.5 76t79.5 29q47 0 76 -29t29 -76q0 -46 -29 -74t-76 -28z" />
    <glyph glyph-name="ellipsis" unicode="&#x2026;" horiz-adv-x="657" 
d="M112 -10q-28 0 -46 15.5t-18 43.5q0 29 18 45t46 16q27 0 45 -16t18 -45q0 -28 -18 -43.5t-45 -15.5zM334 -10q-27 0 -45 15.5t-18 43.5q0 29 18 45t45 16t45 -16t18 -45q0 -28 -18 -43.5t-45 -15.5zM546 -10q-28 0 -46 15.5t-18 43.5q0 29 18 45t46 16q27 0 45 -16
t18 -45q0 -28 -18 -43.5t-45 -15.5z" />
    <glyph glyph-name="perthousand" unicode="&#x2030;" horiz-adv-x="1261" 
d="M204 341q-74 0 -124.5 54.5t-50.5 135.5q0 83 47.5 136t124.5 53q72 0 122 -56t50 -136q0 -83 -48.5 -135t-120.5 -52zM223 0q-8 0 -10.5 5t1.5 12l388 684q6 9 14 9h32q8 0 10.5 -5t-1.5 -12l-385 -684q-5 -9 -17 -9h-32zM213 370q41 0 63.5 37t22.5 93q0 74 -31 132
t-80 58q-43 0 -66 -37.5t-23 -94.5q0 -76 31.5 -132t82.5 -56zM675 -10q-74 0 -124.5 55t-50.5 136q0 83 47.5 135.5t124.5 52.5q72 0 122 -55.5t50 -135.5q0 -83 -48.5 -135.5t-120.5 -52.5zM1068 -10q-74 0 -123 54.5t-49 136.5q0 84 45.5 136t123.5 52q71 0 120 -55.5
t49 -135.5q0 -83 -47.5 -135.5t-118.5 -52.5zM684 20q41 0 63.5 36.5t22.5 92.5q0 74 -31 132.5t-80 58.5q-42 0 -65.5 -37.5t-23.5 -94.5q0 -76 31.5 -132t82.5 -56zM1076 20q42 0 66 36.5t24 92.5q0 74 -32.5 132.5t-82.5 58.5q-42 0 -67 -38t-25 -94q0 -75 33 -131.5
t84 -56.5z" />
    <glyph glyph-name="guilsinglleft" unicode="&#x2039;" horiz-adv-x="292" 
d="M244 472q-31 -106 -139 -186q100 -83 134 -168q1 -5 -6 -10t-17.5 -5t-18.5 9q-64 77 -154 150q-9 7 -8.5 27t8.5 26q108 77 167 167q6 10 21.5 5.5t12.5 -15.5z" />
    <glyph glyph-name="guilsinglright" unicode="&#x203a;" horiz-adv-x="286" 
d="M242 315q8 -6 8 -26t-8 -27q-88 -71 -148 -150q-7 -9 -17 -9.5t-17.5 5t-6.5 10.5q41 103 126 170q-97 67 -131 184q-3 11 12.5 15.5t21.5 -5.5q53 -91 160 -167z" />
    <glyph glyph-name="fraction" unicode="&#x2044;" horiz-adv-x="405" 
d="M-11 0q-19 0 -9 17l395 684q5 9 16 9h27q8 0 10.5 -5t-1.5 -12l-393 -684q-5 -9 -17 -9h-28z" />
    <glyph glyph-name="Euro" unicode="&#x20ac;" horiz-adv-x="699" 
d="M620 153q12 13 27 5.5t9 -26.5q-21 -57 -82.5 -99t-144.5 -42q-113 0 -195 86t-98 223h-93q-14 0 -14 11v17q0 11 14 11h90v21q0 27 1 40h-91q-14 0 -14 10v19q0 10 14 10h96q19 134 99.5 206t185.5 72q92 0 161 -41t69 -85q0 -17 -11 -29t-31 -12q-18 0 -33 13t-28 31
t-29.5 36.5t-47 31.5t-71.5 13q-68 0 -120 -63.5t-60 -172.5h304q15 0 15 -10v-19q0 -10 -15 -10h-305q0 -32 3 -61h267q14 0 14 -11v-17q0 -11 -14 -11h-261q20 -110 79.5 -169.5t136.5 -59.5q51 0 97 22t76 60z" />
    <glyph glyph-name="trademark" unicode="&#x2122;" horiz-adv-x="755" 
d="M307 627h-9q-5 0 -17.5 23.5t-25.5 23.5h-49v-248q0 -9 11.5 -16t11.5 -11v-4q0 -7 -9 -7h-91q-9 0 -9 7v4q0 4 11.5 11t11.5 16v248h-54q-13 0 -25 -23.5t-17 -23.5h-9q-9 0 -7 10l10 63q1 9 12 9h239q10 0 11 -9l11 -63q2 -10 -7 -10zM690 427q2 -9 11.5 -16t9.5 -11
v-5q0 -7 -9 -7h-82q-9 0 -9 7v5q0 4 9.5 10.5t7.5 16.5l-37 205l-84 -230q-5 -14 -16 -14q-13 0 -18 13l-83 232l-33 -207q-2 -10 7.5 -16.5t9.5 -10.5v-4q0 -7 -8 -7h-62q-10 0 -10 7v4q0 4 10 11t11 16l41 247q2 10 -7.5 17.5t-9.5 11.5v1q0 6 8 6h61q13 0 17 -10l74 -219
l76 219q4 10 16 10h58q9 0 9 -5v-4q0 -3 -8.5 -11.5t-6.5 -18.5z" />
    <glyph glyph-name="minus" unicode="&#x2212;" 
d="M114 241q-14 0 -14 11v37q0 11 14 11h372q15 0 15 -11v-37q0 -11 -15 -11h-372z" />
    <glyph glyph-name="approxequal" unicode="&#x2248;" 
d="M193 488q45 0 112 -34t101 -34q53 0 76 45q7 13 19 13h17q14 0 11 -16q-10 -50 -45 -79t-80 -29q-34 0 -66 11t-52 23.5t-45.5 23.5t-47.5 11q-47 0 -70 -47q-7 -15 -25 -15h-11q-13 0 -10 17q9 44 38.5 77t77.5 33zM190 298q45 0 112 -34t101 -34q25 0 46 11.5t30 33.5
q8 13 19 13h17q14 0 11 -16q-9 -50 -44.5 -79t-81.5 -29q-54 0 -117 34t-93 34q-46 0 -70 -47q-8 -15 -25 -15h-11q-13 0 -10 17q8 44 37.5 77.5t78.5 33.5z" />
    <glyph glyph-name="notequal" unicode="&#x2260;" 
d="M486 330h-118l-63 -121h181q14 0 14 -10v-38q0 -10 -14 -10h-211l-67 -129q-4 -11 -15 -7l-17 8q-10 5 -4 17l58 111h-116q-14 0 -14 10v38q0 10 14 10h146l63 121h-209q-14 0 -14 11v37q0 11 14 11h240l61 117q7 14 17 8l15 -7q10 -6 4 -17l-52 -101h87q14 0 14 -11v-37
q0 -11 -14 -11z" />
    <glyph glyph-name="uniF8FF" unicode="&#xf8ff;" horiz-adv-x="1451" 
d="M691 583q0 26 17.5 44t43.5 18t44 -18t18 -44t-18 -43.5t-44 -17.5t-43.5 18t-17.5 43zM219 270h-119q0 78 2 156.5t4 117.5l3 40h100q9 -139 10 -314zM694 270q0 92 3 147h-61l3 -65q4 -4 15 -4q6 0 10.5 1t5.5 3l2 1v-74q-10 -15 -66 -15q-84 0 -84 66q0 15 2 50t2 37
h-22v79l119 30l1 -17h178q10 -64 10 -239h-118zM328 265q-92 0 -92 113q0 136 137 136q119 0 121 -117v-127h-83l-8 61q-6 -33 -23.5 -49.5t-51.5 -16.5zM1090 270h-114q0 26 1 56t1 40q0 26 -15 26q-18 0 -18 -26q0 -10 1.5 -40t1.5 -56h-114q0 78 2.5 137.5t5.5 80.5l2 21
h80q6 -45 6 -76q0 9 4.5 25t24.5 36t52 20q41 0 57.5 -24.5t18.5 -81.5zM1351 384q0 -55 -31 -87t-93 -32q-60 0 -90.5 33t-30.5 86q0 130 122 130q70 0 96.5 -34.5t26.5 -95.5zM390 375q0 26 -23 26t-23 -26q0 -30 23 -30t23 30zM1251 375q0 26 -23 26q-21 0 -21 -26
q0 -30 21 -30q23 0 23 30zM428 238h104q10 -60 10 -147q0 -73 -35 -107t-114 -34q-32 0 -54.5 4t-29.5 8l-7 5v83q20 -16 69 -16q24 0 37.5 7t15.5 14l2 7q-13 -11 -49 -11q-90 0 -90 83v13h-55l3 -65q4 -4 15 -4q6 0 10.5 1t5.5 3l2 1v-73q-10 -15 -67 -15q-82 0 -82 64
q0 46 3 88h-18v80l117 29l-1 -17l177 -1v-119q0 -27 14 -27q17 0 17 27v119zM733 243q37 0 58.5 -29t21.5 -83q0 -136 -137 -136q1 -13 1 -39h-119q0 76 2.5 146.5t5.5 103.5l2 32h78q7 -52 7 -76q2 11 6.5 25.5t24 35t49.5 20.5zM1070 129l-3 -37h-124q9 -18 49 -18
q16 0 30 3t20 6l6 3v-75q-20 -16 -78 -16q-69 0 -105 31t-36 86q0 64 32.5 97.5t93.5 33.5q54 0 84.5 -30t30.5 -84zM978 109q3 27 -17 27q-23 0 -23 -27h40zM670 72q4 0 10 1.5t16.5 11t10.5 25.5q0 22 -20 22q-22 0 -22 -32zM1075 13q0 -10 6.5 -16.5t16.5 -6.5
q9 0 15.5 6.5t6.5 16.5t-6.5 16t-15.5 6q-10 0 -16.5 -6t-6.5 -16zM1080 13q0 7 5 12.5t13 5.5q7 0 12 -5.5t5 -12.5t-5 -12.5t-12 -5.5q-8 0 -13 5.5t-5 12.5zM1108 2l-6 9q7 0 7 7t-10 7h-11v-23h5v9h5l4 -9h6zM1099 15h-6v6h5q6 0 6 -2q0 -4 -5 -4z" />
    <glyph glyph-name="uni00A40301" horiz-adv-x="517" 
d="M295 782q-19 -2 -24 12q-3 15 11 22l198 88q26 13 34 -15l9 -34q3 -11 -2.5 -19t-17.5 -9zM340 640q0 20 -18.5 34.5t-18.5 21.5v2q0 12 21 12h126q19 0 19 -12v-2q0 -7 -9.5 -14t-19 -17t-9.5 -25l-1 -385q-1 -263 -212 -265q-54 0 -96 16t-65.5 42t-35 52.5t-11.5 50.5
q0 21 11.5 33.5t31.5 12.5q22 0 35 -17t20 -41.5t17.5 -49t35.5 -41.5t65 -17q50 0 82 47.5t32 134.5v427z" />
    <glyph glyph-name="A.ss01" horiz-adv-x="669" 
d="M621 70q9 -20 28.5 -33.5t19.5 -22.5v-2q0 -12 -19 -12h-141q-19 0 -19 12v2q0 6 7 12t14.5 10t12.5 13t0 21l-48 118h-324l-44 -118q-5 -12 -0.5 -21t12 -13t15 -10t7.5 -12v-2q0 -12 -21 -12h-95q-20 0 -20 12v2q0 8 19.5 21.5t27.5 34.5l222 567q7 17 -12 35.5
t-19 23.5v3q0 11 14 11h58q33 0 47 -33zM169 231h290l-150 371z" />
    <glyph glyph-name="Aacute.ss01" horiz-adv-x="669" 
d="M235 782q-19 -2 -24 12t10 22l199 88q24 12 34 -15l8 -34q4 -11 -1.5 -19t-18.5 -9zM621 70q9 -20 28.5 -33.5t19.5 -22.5v-2q0 -12 -19 -12h-141q-19 0 -19 12v2q0 6 7 12t14.5 10t12.5 13t0 21l-48 118h-324l-44 -118q-5 -12 -0.5 -21t12 -13t15 -10t7.5 -12v-2
q0 -12 -21 -12h-95q-20 0 -20 12v2q0 8 19.5 21.5t27.5 34.5l222 567q7 17 -12 35.5t-19 23.5v3q0 11 14 11h58q33 0 47 -33zM169 231h290l-150 371z" />
    <glyph glyph-name="Abreve.ss01" horiz-adv-x="669" 
d="M326 777q-61 0 -103.5 35.5t-50.5 86.5q-3 17 13.5 21.5t21.5 -7.5q11 -34 44 -54.5t75 -20.5t75.5 20.5t44.5 54.5q5 11 21 6.5t14 -20.5q-7 -51 -49.5 -86.5t-105.5 -35.5zM621 70q9 -20 28.5 -33.5t19.5 -22.5v-2q0 -12 -19 -12h-141q-19 0 -19 12v2q0 6 7 12t14.5 10
t12.5 13t0 21l-48 118h-324l-44 -118q-5 -12 -0.5 -21t12 -13t15 -10t7.5 -12v-2q0 -12 -21 -12h-95q-20 0 -20 12v2q0 8 19.5 21.5t27.5 34.5l222 567q7 17 -12 35.5t-19 23.5v3q0 11 14 11h58q33 0 47 -33zM169 231h290l-150 371z" />
    <glyph glyph-name="Acircumflex.ss01" horiz-adv-x="669" 
d="M197 765q-14 -9 -25.5 2.5t2.5 25.5l110 101q15 14 31 14h18q14 0 31 -14l114 -101q15 -14 5.5 -26.5t-28.5 -1.5l-133 77zM621 70q9 -20 28.5 -33.5t19.5 -22.5v-2q0 -12 -19 -12h-141q-19 0 -19 12v2q0 6 7 12t14.5 10t12.5 13t0 21l-48 118h-324l-44 -118
q-5 -12 -0.5 -21t12 -13t15 -10t7.5 -12v-2q0 -12 -21 -12h-95q-20 0 -20 12v2q0 8 19.5 21.5t27.5 34.5l222 567q7 17 -12 35.5t-19 23.5v3q0 11 14 11h58q33 0 47 -33zM169 231h290l-150 371z" />
    <glyph glyph-name="Adieresis.ss01" horiz-adv-x="669" 
d="M232 791q-27 0 -44.5 16.5t-17.5 41.5t17.5 41.5t44.5 16.5t43.5 -16t16.5 -42t-16.5 -42t-43.5 -16zM423 791q-28 0 -44.5 16t-16.5 42t16.5 42t44.5 16q26 0 43.5 -16.5t17.5 -41.5t-17.5 -41.5t-43.5 -16.5zM621 70q9 -20 28.5 -33.5t19.5 -22.5v-2q0 -12 -19 -12
h-141q-19 0 -19 12v2q0 6 7 12t14.5 10t12.5 13t0 21l-48 118h-324l-44 -118q-5 -12 -0.5 -21t12 -13t15 -10t7.5 -12v-2q0 -12 -21 -12h-95q-20 0 -20 12v2q0 8 19.5 21.5t27.5 34.5l222 567q7 17 -12 35.5t-19 23.5v3q0 11 14 11h58q33 0 47 -33zM169 231h290l-150 371z
" />
    <glyph glyph-name="Agrave.ss01" horiz-adv-x="669" 
d="M196 831q-26 5 -19 29l10 34q8 26 34 14l196 -90q15 -8 10 -23q-5 -13 -24 -11zM621 70q9 -20 28.5 -33.5t19.5 -22.5v-2q0 -12 -19 -12h-141q-19 0 -19 12v2q0 6 7 12t14.5 10t12.5 13t0 21l-48 118h-324l-44 -118q-5 -12 -0.5 -21t12 -13t15 -10t7.5 -12v-2
q0 -12 -21 -12h-95q-20 0 -20 12v2q0 8 19.5 21.5t27.5 34.5l222 567q7 17 -12 35.5t-19 23.5v3q0 11 14 11h58q33 0 47 -33zM169 231h290l-150 371z" />
    <glyph glyph-name="Amacron.ss01" horiz-adv-x="669" 
d="M194 811q-17 0 -17 15v28q0 15 17 15h263q17 0 17 -15v-28q0 -15 -17 -15h-263zM621 70q9 -20 28.5 -33.5t19.5 -22.5v-2q0 -12 -19 -12h-141q-19 0 -19 12v2q0 6 7 12t14.5 10t12.5 13t0 21l-48 118h-324l-44 -118q-5 -12 -0.5 -21t12 -13t15 -10t7.5 -12v-2
q0 -12 -21 -12h-95q-20 0 -20 12v2q0 8 19.5 21.5t27.5 34.5l222 567q7 17 -12 35.5t-19 23.5v3q0 11 14 11h58q33 0 47 -33zM169 231h290l-150 371z" />
    <glyph glyph-name="Aogonek.ss01" horiz-adv-x="669" 
d="M621 70q9 -20 28.5 -33.5t19.5 -22.5v-2q0 -12 -19 -12h-41q-70 -65 -70 -122q0 -24 11 -36.5t29 -12.5q10 0 27 5q14 6 18 -10q3 -19 -11 -26q-17 -11 -47 -11q-38 0 -65.5 20.5t-27.5 58.5q0 35 28 70.5t72 63.5h-64q-19 0 -19 12v2q0 6 7 12t14.5 10t12.5 13t0 21
l-48 118h-324l-44 -118q-5 -12 -0.5 -21t12 -13t15 -10t7.5 -12v-2q0 -12 -21 -12h-95q-20 0 -20 12v2q0 8 19.5 21.5t27.5 34.5l222 567q7 17 -12 35.5t-19 23.5v3q0 11 14 11h58q33 0 47 -33zM169 231h290l-150 371z" />
    <glyph glyph-name="Aring.ss01" horiz-adv-x="669" 
d="M325 758q-50 0 -83 28.5t-33 70.5q0 44 32.5 73t84.5 29q50 0 83.5 -28.5t33.5 -70.5q0 -44 -32.5 -73t-85.5 -29zM326 926q-27 0 -43.5 -18t-16.5 -49q0 -30 16.5 -50t43.5 -20t43.5 19t16.5 51q0 29 -17 48t-43 19zM621 70q9 -20 28.5 -33.5t19.5 -22.5v-2
q0 -12 -19 -12h-141q-19 0 -19 12v2q0 6 7 12t14.5 10t12.5 13t0 21l-48 118h-324l-44 -118q-5 -12 -0.5 -21t12 -13t15 -10t7.5 -12v-2q0 -12 -21 -12h-95q-20 0 -20 12v2q0 8 19.5 21.5t27.5 34.5l222 567q7 17 -12 35.5t-19 23.5v3q0 11 14 11h58q33 0 47 -33zM169 231
h290l-150 371z" />
    <glyph glyph-name="Atilde.ss01" horiz-adv-x="669" 
d="M170 782q-13 0 -10 17q8 42 32.5 68.5t64.5 26.5q34 0 84 -28.5t69 -28.5q35 0 51 34q5 13 16 13h7q15 0 10 -17q-23 -93 -95 -93q-32 0 -81.5 29t-71.5 29q-34 0 -51 -35q-7 -15 -16 -15h-9zM621 70q9 -20 28.5 -33.5t19.5 -22.5v-2q0 -12 -19 -12h-141q-19 0 -19 12v2
q0 6 7 12t14.5 10t12.5 13t0 21l-48 118h-324l-44 -118q-5 -12 -0.5 -21t12 -13t15 -10t7.5 -12v-2q0 -12 -21 -12h-95q-20 0 -20 12v2q0 8 19.5 21.5t27.5 34.5l222 567q7 17 -12 35.5t-19 23.5v3q0 11 14 11h58q33 0 47 -33zM169 231h290l-150 371z" />
    <glyph glyph-name="G.ss01" horiz-adv-x="724" 
d="M383 -10q-139 0 -242.5 108t-103.5 254q0 163 96 265t239 102q117 0 196.5 -61t79.5 -123q0 -19 -12 -31t-31 -12q-20 0 -37.5 19t-34.5 46.5t-38.5 55t-59.5 46.5t-89 19q-92 0 -156 -78.5t-64 -193.5q0 -149 84.5 -252t196.5 -103q96 0 156 43v173q0 14 -10.5 23
t-23.5 13t-23.5 9t-10.5 10v4q0 14 21 14l171 -1q20 0 20 -13v-4q0 -5 -9 -10t-20.5 -9t-20.5 -13t-9 -23v-155q0 -27 -26 -48q-89 -74 -239 -74z" />
    <glyph glyph-name="Gbreve.ss01" horiz-adv-x="725" 
d="M380 777q-61 0 -103.5 35.5t-50.5 86.5q-3 17 13.5 21.5t21.5 -7.5q10 -34 43 -54.5t76 -20.5q42 0 75.5 20.5t44.5 54.5q5 11 21 6.5t14 -20.5q-7 -51 -49.5 -86.5t-105.5 -35.5zM384 -10q-139 0 -243 108t-104 254q0 163 96 265t239 102q117 0 196.5 -61t79.5 -123
q0 -20 -11.5 -31.5t-30.5 -11.5q-20 0 -37.5 19t-34.5 46.5t-38.5 55t-59.5 46.5t-89 19q-92 0 -156 -78t-64 -194q0 -149 84 -252t196 -103q96 0 156 43v173q0 17 -16.5 27t-33.5 16t-17 12v4q0 14 21 14l170 -1q20 0 20 -13v-4q0 -5 -9 -10t-20.5 -9t-20.5 -13t-9 -23
v-155q0 -27 -25 -48q-91 -74 -239 -74z" />
    <glyph glyph-name="uni0122.ss01" horiz-adv-x="725" 
d="M384 -10q-139 0 -243 108t-104 254q0 163 96 265t239 102q117 0 196.5 -61t79.5 -123q0 -20 -11.5 -31.5t-30.5 -11.5q-20 0 -37.5 19t-34.5 46.5t-38.5 55t-59.5 46.5t-89 19q-92 0 -156 -78t-64 -194q0 -149 84 -252t196 -103q96 0 156 43v173q0 17 -16.5 27t-33.5 16
t-17 12v4q0 14 21 14l170 -1q20 0 20 -13v-4q0 -5 -9 -10t-20.5 -9t-20.5 -13t-9 -23v-155q0 -27 -25 -48q-91 -74 -239 -74zM357 -297q-10 -7 -18.5 2t1.5 18q43 42 52 85q4 14 -8 14q-20 0 -33.5 16t-13.5 41q0 27 16 44t42 17t43 -19t17 -51q0 -99 -98 -167z" />
    <glyph glyph-name="Gdotaccent.ss01" horiz-adv-x="725" 
d="M384 776q-29 0 -47 16.5t-18 43.5t18 44t47 17q28 0 45.5 -17t17.5 -44t-17.5 -43.5t-45.5 -16.5zM384 -10q-139 0 -243 108t-104 254q0 163 96 265t239 102q117 0 196.5 -61t79.5 -123q0 -20 -11.5 -31.5t-30.5 -11.5q-20 0 -37.5 19t-34.5 46.5t-38.5 55t-59.5 46.5
t-89 19q-92 0 -156 -78t-64 -194q0 -149 84 -252t196 -103q96 0 156 43v173q0 17 -16.5 27t-33.5 16t-17 12v4q0 14 21 14l170 -1q20 0 20 -13v-4q0 -5 -9 -10t-20.5 -9t-20.5 -13t-9 -23v-155q0 -27 -25 -48q-91 -74 -239 -74z" />
    <glyph glyph-name="K.ss01" horiz-adv-x="679" 
d="M643 71q9 -15 19.5 -25t17 -13.5t10.5 -8t4 -10.5v-2q0 -12 -17 -12h-143q-18 0 -18 12v2q0 6 17 20.5t7 31.5l-208 330l-145 -143v-182q0 -19 19.5 -34t19.5 -23v-2q0 -12 -21 -12h-125q-20 0 -20 12v2q0 8 18 23t18 34v569q0 20 -18 34.5t-18 21.5v2q0 12 20 12h125
q20 0 20 -12v-2q0 -7 -9.5 -14t-19 -17t-9.5 -25v-326l326 323q14 18 11 25.5t-13 17.5t-10 16v2q0 12 21 12h104q20 0 20 -12v-2q0 -8 -10 -15t-29 -19t-32 -25l-182 -180z" />
    <glyph glyph-name="uni0136.ss01" horiz-adv-x="679" 
d="M643 71q9 -15 19.5 -25t17 -13.5t10.5 -8t4 -10.5v-2q0 -12 -17 -12h-143q-18 0 -18 12v2q0 6 17 20.5t7 31.5l-208 330l-145 -143v-182q0 -19 19.5 -34t19.5 -23v-2q0 -12 -21 -12h-125q-20 0 -20 12v2q0 8 18 23t18 34v569q0 20 -18 34.5t-18 21.5v2q0 12 20 12h125
q20 0 20 -12v-2q0 -7 -9.5 -14t-19 -17t-9.5 -25v-326l326 323q14 18 11 25.5t-13 17.5t-10 16v2q0 12 21 12h104q20 0 20 -12v-2q0 -8 -10 -15t-29 -19t-32 -25l-182 -180zM381 -60q26 0 43 -19t17 -51q0 -99 -98 -167q-10 -7 -18.5 2t1.5 18q42 41 53 85q3 14 -9 14
q-20 0 -33.5 16t-13.5 41q0 27 16 44t42 17z" />
    <glyph glyph-name="M.ss01" horiz-adv-x="895" 
d="M835 73q4 -22 22.5 -36.5t18.5 -22.5v-2q0 -12 -21 -12h-123q-20 0 -20 12v2q0 7 10 14t18 17.5t5 27.5l-88 499l-201 -550q-9 -21 -26 -21q-18 0 -27 20l-203 563l-86 -511q-2 -13 3 -22.5t13 -14t15 -10.5t7 -12v-2q0 -12 -20 -12h-91q-20 0 -20 12v2q0 8 18 23t22 36
l97 565q3 20 -15 34.5t-18 22.5v2q0 13 17 13h66q30 0 39 -26l195 -565l201 566q9 25 36 25h71q15 0 15 -11v-3q0 -8 -10.5 -15.5t-18.5 -19.5t-5 -31z" />
    <glyph glyph-name="N.ss01" horiz-adv-x="750" 
d="M676 710q20 0 20 -13v-2q0 -7 -20 -21t-20 -34v-613q0 -27 -25 -27h-25q-15 0 -32 26l-427 582v-535q0 -16 10.5 -26.5t21.5 -18t11 -14.5v-2q0 -12 -21 -12h-91q-20 0 -20 12v2q0 7 19 22.5t19 36.5v566q0 15 -9.5 24.5t-19 16t-9.5 13.5v4q0 13 20 13h76q22 0 36 -20
l415 -574v524q0 20 -20.5 34t-20.5 21v2q0 13 21 13h91z" />
    <glyph glyph-name="Nacute.ss01" horiz-adv-x="750" 
d="M294 782q-19 -2 -24 12t10 22l199 88q24 12 34 -15l8 -34q4 -11 -1.5 -19t-18.5 -9zM676 710q20 0 20 -13v-2q0 -7 -20 -21t-20 -34v-613q0 -27 -25 -27h-25q-15 0 -32 26l-427 582v-535q0 -16 10.5 -26.5t21.5 -18t11 -14.5v-2q0 -12 -21 -12h-91q-20 0 -20 12v2
q0 7 19 22.5t19 36.5v566q0 15 -9.5 24.5t-19 16t-9.5 13.5v4q0 13 20 13h76q22 0 36 -20l415 -574v524q0 20 -20.5 34t-20.5 21v2q0 13 21 13h91z" />
    <glyph glyph-name="Ncaron.ss01" horiz-adv-x="750" 
d="M335 761l-115 106q-7 7 -3.5 15t12 10.5t16.5 -1.5l132 -84l131 84q9 5 18 1.5t11 -11t-4 -14.5l-117 -106q-16 -13 -31 -13h-20q-16 0 -30 13zM676 710q20 0 20 -13v-2q0 -7 -20 -21t-20 -34v-613q0 -27 -25 -27h-25q-15 0 -32 26l-427 582v-535q0 -16 10.5 -26.5
t21.5 -18t11 -14.5v-2q0 -12 -21 -12h-91q-20 0 -20 12v2q0 7 19 22.5t19 36.5v566q0 15 -9.5 24.5t-19 16t-9.5 13.5v4q0 13 20 13h76q22 0 36 -20l415 -574v524q0 20 -20.5 34t-20.5 21v2q0 13 21 13h91z" />
    <glyph glyph-name="uni0145.ss01" horiz-adv-x="750" 
d="M676 710q20 0 20 -13v-2q0 -7 -20 -21t-20 -34v-613q0 -27 -25 -27h-25q-15 0 -32 26l-427 582v-535q0 -16 10.5 -26.5t21.5 -18t11 -14.5v-2q0 -12 -21 -12h-91q-20 0 -20 12v2q0 7 19 22.5t19 36.5v566q0 15 -9.5 24.5t-19 16t-9.5 13.5v4q0 13 20 13h76q22 0 36 -20
l415 -574v524q0 20 -20.5 34t-20.5 21v2q0 13 21 13h91zM394 -60q26 0 43 -19t17 -51q0 -99 -98 -167q-10 -7 -18.5 2t0.5 18q44 42 53 85q3 14 -8 14q-20 0 -33.5 16t-13.5 41q0 27 16 44t42 17z" />
    <glyph glyph-name="Ntilde.ss01" horiz-adv-x="750" 
d="M233 782q-14 0 -11 17q8 41 33 68t64 27q35 0 85 -28.5t68 -28.5q36 0 51 34q7 13 17 13h7q15 0 10 -17q-23 -93 -96 -93q-31 0 -81 29t-72 29q-34 0 -50 -35q-8 -15 -17 -15h-8zM676 710q20 0 20 -13v-2q0 -7 -20 -21t-20 -34v-613q0 -27 -25 -27h-25q-15 0 -32 26
l-427 582v-535q0 -16 10.5 -26.5t21.5 -18t11 -14.5v-2q0 -12 -21 -12h-91q-20 0 -20 12v2q0 7 19 22.5t19 36.5v566q0 15 -9.5 24.5t-19 16t-9.5 13.5v4q0 13 20 13h76q22 0 36 -20l415 -574v524q0 20 -20.5 34t-20.5 21v2q0 13 21 13h91z" />
    <glyph glyph-name="Q.ss01" horiz-adv-x="771" 
d="M745 -58q6 3 11.5 -2.5t-0.5 -14.5q-15 -32 -60 -53t-99 -21q-46 0 -93 19t-79.5 42t-77 42t-87.5 19q-67 0 -127 -31q-15 -6 -20 7.5t6 24.5q51 45 114 54q-90 46 -142.5 135.5t-52.5 193.5q0 157 98 260t251 103q151 0 249 -108t98 -261q0 -146 -94 -251t-233 -110
q8 -4 35 -20t40 -22.5t36.5 -16.5t46.5 -14t48 -4q84 0 132 29zM128 418q0 -159 81.5 -272t206.5 -113q98 0 163 77t65 181q0 162 -81 274t-207 112q-100 0 -164 -74t-64 -185z" />
    <glyph glyph-name="R.ss01" horiz-adv-x="648" 
d="M578 70q11 -16 27.5 -26.5t26 -16t9.5 -13.5v-2q0 -12 -20 -12h-139q-20 0 -20 12v2q0 7 10.5 15t14.5 14.5t-5 26.5l-150 207q-8 -1 -25 -1l-120 -2v-204q0 -15 9.5 -25t19.5 -17t10 -14v-2q0 -12 -20 -12h-126q-20 0 -20 12v2q0 7 18 21.5t18 34.5v570q0 20 -18 34.5
t-18 21.5v2q0 12 20 12h205q135 0 218 -55.5t84 -164.5q0 -70 -44 -123t-125 -76zM298 316q88 0 142 43t54 118q0 94 -61.5 143t-152.5 49h-67q-26 0 -26 -34v-272q0 -47 42 -47h69z" />
    <glyph glyph-name="Racute.ss01" horiz-adv-x="648" 
d="M237 782q-19 -2 -24 12t10 22l199 88q24 12 34 -15l9 -34q3 -11 -2.5 -19t-17.5 -9zM578 70q11 -16 27.5 -26.5t26 -16t9.5 -13.5v-2q0 -12 -20 -12h-139q-20 0 -20 12v2q0 7 10.5 15t14.5 14.5t-5 26.5l-150 207q-8 -1 -25 -1l-120 -2v-204q0 -15 9.5 -25t19.5 -17
t10 -14v-2q0 -12 -20 -12h-126q-20 0 -20 12v2q0 7 18 21.5t18 34.5v570q0 20 -18 34.5t-18 21.5v2q0 12 20 12h205q135 0 218 -55.5t84 -164.5q0 -70 -44 -123t-125 -76zM298 316q88 0 142 43t54 118q0 94 -61.5 143t-152.5 49h-67q-26 0 -26 -34v-272q0 -47 42 -47h69z
" />
    <glyph glyph-name="Rcaron.ss01" horiz-adv-x="648" 
d="M287 761l-115 106q-7 7 -3.5 15t12 10.5t16.5 -1.5l132 -84l131 84q9 5 18 1.5t11 -11t-4 -14.5l-117 -106q-16 -13 -31 -13h-20q-16 0 -30 13zM578 70q11 -16 27.5 -26.5t26 -16t9.5 -13.5v-2q0 -12 -20 -12h-139q-20 0 -20 12v2q0 7 10.5 15t14.5 14.5t-5 26.5
l-150 207q-8 -1 -25 -1l-120 -2v-204q0 -15 9.5 -25t19.5 -17t10 -14v-2q0 -12 -20 -12h-126q-20 0 -20 12v2q0 7 18 21.5t18 34.5v570q0 20 -18 34.5t-18 21.5v2q0 12 20 12h205q135 0 218 -55.5t84 -164.5q0 -70 -44 -123t-125 -76zM298 316q88 0 142 43t54 118
q0 94 -61.5 143t-152.5 49h-67q-26 0 -26 -34v-272q0 -47 42 -47h69z" />
    <glyph glyph-name="uni0156.ss01" horiz-adv-x="648" 
d="M578 70q11 -16 27.5 -26.5t26 -16t9.5 -13.5v-2q0 -12 -20 -12h-139q-20 0 -20 12v2q0 7 10.5 15t14.5 14.5t-5 26.5l-150 207q-8 -1 -25 -1l-120 -2v-204q0 -15 9.5 -25t19.5 -17t10 -14v-2q0 -12 -20 -12h-126q-20 0 -20 12v2q0 7 18 21.5t18 34.5v570q0 20 -18 34.5
t-18 21.5v2q0 12 20 12h205q135 0 218 -55.5t84 -164.5q0 -70 -44 -123t-125 -76zM298 316q88 0 142 43t54 118q0 94 -61.5 143t-152.5 49h-67q-26 0 -26 -34v-272q0 -47 42 -47h69zM331 -52q26 0 43.5 -19t17.5 -51q0 -100 -98 -168q-10 -6 -18.5 3t0.5 18q44 40 53 85
q3 13 -8 13q-20 0 -34 16t-14 41q0 27 16 44.5t42 17.5z" />
    <glyph glyph-name="U.ss01" horiz-adv-x="719" 
d="M367 -10q-126 0 -204.5 78t-78.5 208v364q0 20 -18 34t-18 21v3q0 12 20 12h126q20 0 20 -12v-3q0 -7 -19 -21t-19 -34v-364q0 -111 57 -177t151 -66q83 0 141 64.5t58 178.5v364q0 20 -19 34t-19 21v3q0 12 21 12h88q21 0 21 -12v-3q0 -7 -20.5 -21t-20.5 -34v-365
q0 -129 -74 -207t-193 -78z" />
    <glyph glyph-name="Uacute.ss01" horiz-adv-x="719" 
d="M276 782q-19 -2 -24 12t10 22l199 88q25 12 33 -15l9 -34q4 -11 -1.5 -19t-18.5 -9zM367 -10q-126 0 -204.5 78t-78.5 208v364q0 20 -18 34t-18 21v3q0 12 20 12h126q20 0 20 -12v-3q0 -7 -19 -21t-19 -34v-364q0 -111 57 -177t151 -66q83 0 141 64.5t58 178.5v364
q0 20 -19 34t-19 21v3q0 12 21 12h88q21 0 21 -12v-3q0 -7 -20.5 -21t-20.5 -34v-365q0 -129 -74 -207t-193 -78z" />
    <glyph glyph-name="Ucircumflex.ss01" horiz-adv-x="719" 
d="M236 765q-14 -9 -25.5 2.5t3.5 25.5l110 101q14 14 30 14h19q14 0 30 -14l115 -101q15 -14 5 -26.5t-28 -1.5l-134 77zM654 710q21 0 21 -12v-3q0 -7 -20.5 -21t-20.5 -34v-365q0 -129 -74 -207t-193 -78q-126 0 -204.5 78t-78.5 208v364q0 20 -18 34t-18 21v3
q0 12 20 12h126q20 0 20 -12v-3q0 -7 -19 -21t-19 -34v-364q0 -111 57 -177t151 -66q83 0 141 64.5t58 178.5v364q0 20 -19 34t-19 21v3q0 12 21 12h88z" />
    <glyph glyph-name="Udieresis.ss01" horiz-adv-x="719" 
d="M274 791q-28 0 -45 16t-17 42t17 42t45 16q27 0 43.5 -16t16.5 -42t-16.5 -42t-43.5 -16zM464 791q-28 0 -44.5 16t-16.5 42t16.5 42t44.5 16q27 0 44 -16t17 -42t-17 -42t-44 -16zM367 -10q-126 0 -204.5 78t-78.5 208v364q0 20 -18 34t-18 21v3q0 12 20 12h126
q20 0 20 -12v-3q0 -7 -19 -21t-19 -34v-364q0 -111 57 -177t151 -66q83 0 141 64.5t58 178.5v364q0 20 -19 34t-19 21v3q0 12 21 12h88q21 0 21 -12v-3q0 -7 -20.5 -21t-20.5 -34v-365q0 -129 -74 -207t-193 -78z" />
    <glyph glyph-name="Ugrave.ss01" horiz-adv-x="719" 
d="M460 784l-207 47q-25 5 -20 29l10 34q8 27 35 14l196 -90q15 -8 10 -23q-5 -13 -24 -11zM367 -10q-126 0 -204.5 78t-78.5 208v364q0 20 -18 34t-18 21v3q0 12 20 12h126q20 0 20 -12v-3q0 -7 -19 -21t-19 -34v-364q0 -111 57 -177t151 -66q83 0 141 64.5t58 178.5v364
q0 20 -19 34t-19 21v3q0 12 21 12h88q21 0 21 -12v-3q0 -7 -20.5 -21t-20.5 -34v-365q0 -129 -74 -207t-193 -78z" />
    <glyph glyph-name="Uhungarumlaut.ss01" horiz-adv-x="719" 
d="M242 753q-10 7 2 24l113 159q16 23 32 7l20 -18q21 -19 0 -35l-143 -132q-15 -13 -24 -5zM423 753q-9 7 2 23l114 160q15 23 32 6l20 -18q20 -18 0 -35l-143 -132q-15 -11 -25 -4zM367 -10q-126 0 -204.5 78t-78.5 208v364q0 20 -18 34t-18 21v3q0 12 20 12h126
q20 0 20 -12v-3q0 -7 -19 -21t-19 -34v-364q0 -111 57 -177t151 -66q83 0 141 64.5t58 178.5v364q0 20 -19 34t-19 21v3q0 12 21 12h88q21 0 21 -12v-3q0 -7 -20.5 -21t-20.5 -34v-365q0 -129 -74 -207t-193 -78z" />
    <glyph glyph-name="Umacron.ss01" horiz-adv-x="719" 
d="M236 811q-17 0 -17 15v28q0 15 17 15h263q18 0 18 -15v-28q0 -15 -18 -15h-263zM367 -10q-126 0 -204.5 78t-78.5 208v364q0 20 -18 34t-18 21v3q0 12 20 12h126q20 0 20 -12v-3q0 -7 -19 -21t-19 -34v-364q0 -111 57 -177t151 -66q83 0 141 64.5t58 178.5v364
q0 20 -19 34t-19 21v3q0 12 21 12h88q21 0 21 -12v-3q0 -7 -20.5 -21t-20.5 -34v-365q0 -129 -74 -207t-193 -78z" />
    <glyph glyph-name="Uogonek.ss01" horiz-adv-x="719" 
d="M654 710q21 0 21 -12v-3q0 -7 -20.5 -21t-20.5 -34v-365q0 -114 -59 -189.5t-158 -91.5q-62 -62 -62 -114q0 -23 11 -36t28 -13q13 0 28 6t18 -12q4 -19 -11 -25q-17 -11 -48 -11q-37 0 -64.5 21t-27.5 58q0 64 82 122h-4q-126 0 -204.5 78t-78.5 208v364q0 20 -18 34
t-18 21v3q0 12 20 12h126q20 0 20 -12v-3q0 -7 -19 -21t-19 -34v-364q0 -111 57 -177t151 -66q83 0 141 64.5t58 178.5v364q0 20 -19 34t-19 21v3q0 12 21 12h88z" />
    <glyph glyph-name="Uring.ss01" horiz-adv-x="719" 
d="M374 758q-50 0 -83 28.5t-33 70.5q0 44 32.5 73t84.5 29q51 0 84.5 -28.5t33.5 -70.5q0 -44 -33 -73t-86 -29zM375 789q27 0 44 19t17 51q0 29 -17 48t-44 19t-43.5 -18.5t-16.5 -48.5t17 -50t43 -20zM367 -10q-126 0 -204.5 78t-78.5 208v364q0 20 -18 34t-18 21v3
q0 12 20 12h126q20 0 20 -12v-3q0 -7 -19 -21t-19 -34v-364q0 -111 57 -177t151 -66q83 0 141 64.5t58 178.5v364q0 20 -19 34t-19 21v3q0 12 21 12h88q21 0 21 -12v-3q0 -7 -20.5 -21t-20.5 -34v-365q0 -129 -74 -207t-193 -78z" />
    <glyph glyph-name="Utilde.ss01" horiz-adv-x="719" 
d="M308 894q35 0 85 -28.5t68 -28.5q36 0 51 34q5 13 17 13h7q13 0 10 -17q-23 -93 -96 -93q-32 0 -81.5 29t-71.5 29q-33 0 -51 -35q-7 -15 -16 -15h-8q-14 0 -11 17q8 41 33 68t64 27zM367 -10q-126 0 -204.5 78t-78.5 208v364q0 20 -18 34t-18 21v3q0 12 20 12h126
q20 0 20 -12v-3q0 -7 -19 -21t-19 -34v-364q0 -111 57 -177t151 -66q83 0 141 64.5t58 178.5v364q0 20 -19 34t-19 21v3q0 12 21 12h88q21 0 21 -12v-3q0 -7 -20.5 -21t-20.5 -34v-365q0 -129 -74 -207t-193 -78z" />
    <glyph glyph-name="W.ss01" horiz-adv-x="981" 
d="M955 710q18 0 18 -11v-3q0 -8 -20 -21.5t-28 -34.5l-197 -614q-9 -26 -39 -26q-25 0 -34 25l-147 428l-154 -427q-8 -26 -35 -26q-24 0 -34 25l-239 614q-7 18 -20 28t-22 16t-9 14v2q0 11 18 11h141q19 0 19 -12v-2q0 -8 -11 -14.5t-19 -16t-2 -26.5l195 -526l147 412
l-39 115q-7 21 -28.5 35t-21.5 22v2q0 11 16 11h143q17 0 17 -11v-2q0 -7 -11.5 -13t-20.5 -16t-4 -28l174 -526l163 526q4 12 -0.5 21t-12 13t-14.5 9.5t-7 11.5v2q0 13 18 13h100z" />
    <glyph glyph-name="Wacute.ss01" horiz-adv-x="981" 
d="M429 782q-19 -2 -24 12q-5 15 10 22l198 88q26 12 34 -15l9 -34q3 -11 -2.5 -19t-17.5 -9zM955 710q18 0 18 -11v-3q0 -8 -20 -21.5t-28 -34.5l-197 -614q-9 -26 -39 -26q-25 0 -34 25l-147 428l-154 -427q-8 -26 -35 -26q-24 0 -34 25l-239 614q-7 18 -20 28t-22 16
t-9 14v2q0 11 18 11h141q19 0 19 -12v-2q0 -8 -11 -14.5t-19 -16t-2 -26.5l195 -526l147 412l-39 115q-7 21 -28.5 35t-21.5 22v2q0 11 16 11h143q17 0 17 -11v-2q0 -7 -11.5 -13t-20.5 -16t-4 -28l174 -526l163 526q4 12 -0.5 21t-12 13t-14.5 9.5t-7 11.5v2q0 13 18 13
h100z" />
    <glyph glyph-name="Wcircumflex.ss01" horiz-adv-x="981" 
d="M390 765q-14 -9 -25.5 2.5t3.5 25.5l110 101q14 14 30 14h19q14 0 30 -14l115 -101q15 -14 5 -26.5t-28 -1.5l-134 77zM955 710q18 0 18 -11v-3q0 -8 -20 -21.5t-28 -34.5l-197 -614q-9 -26 -39 -26q-25 0 -34 25l-147 428l-154 -427q-8 -26 -35 -26q-24 0 -34 25
l-239 614q-7 18 -20 28t-22 16t-9 14v2q0 11 18 11h141q19 0 19 -12v-2q0 -8 -11 -14.5t-19 -16t-2 -26.5l195 -526l147 412l-39 115q-7 21 -28.5 35t-21.5 22v2q0 11 16 11h143q17 0 17 -11v-2q0 -7 -11.5 -13t-20.5 -16t-4 -28l174 -526l163 526q4 12 -0.5 21t-12 13
t-14.5 9.5t-7 11.5v2q0 13 18 13h100z" />
    <glyph glyph-name="Wdieresis.ss01" horiz-adv-x="981" 
d="M427 791q-28 0 -45.5 16t-17.5 42t17.5 42t45.5 16q27 0 43.5 -16t16.5 -42t-16.5 -42t-43.5 -16zM617 791q-28 0 -44.5 16t-16.5 42t16.5 42t44.5 16q27 0 44 -16t17 -42t-17 -42t-44 -16zM955 710q18 0 18 -11v-3q0 -8 -20 -21.5t-28 -34.5l-197 -614q-9 -26 -39 -26
q-25 0 -34 25l-147 428l-154 -427q-8 -26 -35 -26q-24 0 -34 25l-239 614q-7 18 -20 28t-22 16t-9 14v2q0 11 18 11h141q19 0 19 -12v-2q0 -8 -11 -14.5t-19 -16t-2 -26.5l195 -526l147 412l-39 115q-7 21 -28.5 35t-21.5 22v2q0 11 16 11h143q17 0 17 -11v-2
q0 -7 -11.5 -13t-20.5 -16t-4 -28l174 -526l163 526q4 12 -0.5 21t-12 13t-14.5 9.5t-7 11.5v2q0 13 18 13h100z" />
    <glyph glyph-name="Wgrave.ss01" horiz-adv-x="981" 
d="M391 831q-27 5 -20 29l10 34q8 26 34 14l197 -90q16 -8 9 -23q-5 -13 -23 -11zM955 710q18 0 18 -11v-3q0 -8 -20 -21.5t-28 -34.5l-197 -614q-9 -26 -39 -26q-25 0 -34 25l-147 428l-154 -427q-8 -26 -35 -26q-24 0 -34 25l-239 614q-7 18 -20 28t-22 16t-9 14v2
q0 11 18 11h141q19 0 19 -12v-2q0 -8 -11 -14.5t-19 -16t-2 -26.5l195 -526l147 412l-39 115q-7 21 -28.5 35t-21.5 22v2q0 11 16 11h143q17 0 17 -11v-2q0 -7 -11.5 -13t-20.5 -16t-4 -28l174 -526l163 526q4 12 -0.5 21t-12 13t-14.5 9.5t-7 11.5v2q0 13 18 13h100z" />
    <glyph glyph-name="i.loclTRK" horiz-adv-x="243" 
d="M128 575q-31 0 -49 17t-18 45t18.5 45.5t48.5 17.5q29 0 47 -17.5t18 -45.5t-18 -45t-47 -17zM62 0q-19 0 -19 13v4q0 7 9 13.5t18 16t9 24.5v298q0 23 -18 40t-18 22v2q0 7 15 15l77 38q16 6 23.5 2t7.5 -16v-401q0 -12 6 -20.5t14 -12.5t14 -9.5t6 -11.5v-4
q0 -13 -21 -13h-123z" />
    <glyph glyph-name="uni006A0301" horiz-adv-x="240" 
d="M39 557q-17 -5 -26 7q-7 13 6 24l176 126q23 17 37 -7l15 -32q5 -10 1.5 -19t-15.5 -13zM53 -184q-49 0 -80 22t-31 58q0 17 11 28t29 11q19 0 30 -13t14 -29t13 -29t29 -13q21 0 33.5 15t12.5 39q0 25 -14 62t-14 59v343q0 23 -18 39t-18 22v3q0 7 14 15l80 38
q15 7 23.5 2t8.5 -16v-469q0 -58 -17 -111q-25 -76 -106 -76z" />
    <glyph glyph-name="a.ss01" horiz-adv-x="506" 
d="M448 80q2 -21 11 -32.5t19 -14t18 -6.5t8 -12q0 -21 -64 -21q-36 0 -53 13.5t-20 52.5q-38 -70 -144 -70q-84 0 -135 40t-51 111q-1 70 50.5 109t132.5 39q80 0 123 -40l-2 27q-9 92 -37 137t-86 45q-35 0 -58 -18t-31.5 -39t-20.5 -39t-28 -18q-18 0 -28.5 10t-10.5 27
q0 42 49.5 75.5t127.5 33.5q91 0 145.5 -55.5t64.5 -155.5zM245 22q49 0 80 31.5t29 78.5l-4 45q-8 36 -37.5 58t-72.5 22q-51 0 -83 -29t-32 -75q0 -56 33.5 -93.5t86.5 -37.5z" />
    <glyph glyph-name="aacute.ss01" horiz-adv-x="506" 
d="M143 557q-17 -6 -25 7q-7 12 5 24l177 126q22 17 36 -7l16 -32q12 -23 -14 -32zM448 80q2 -21 11 -32.5t19 -14t18 -6.5t8 -12q0 -21 -64 -21q-36 0 -53 13.5t-20 52.5q-38 -70 -144 -70q-84 0 -135 40t-51 111q-1 70 50.5 109t132.5 39q80 0 123 -40l-2 27
q-9 92 -37 137t-86 45q-35 0 -58 -18t-31.5 -39t-20.5 -39t-28 -18q-18 0 -28.5 10t-10.5 27q0 42 49.5 75.5t127.5 33.5q91 0 145.5 -55.5t64.5 -155.5zM245 22q49 0 80 31.5t29 78.5l-4 45q-8 36 -37.5 58t-72.5 22q-51 0 -83 -29t-32 -75q0 -56 33.5 -93.5t86.5 -37.5z
" />
    <glyph glyph-name="abreve.ss01" horiz-adv-x="506" 
d="M227 566q-61 0 -103.5 35.5t-50.5 86.5q-3 16 13.5 20.5t21.5 -7.5q10 -33 43.5 -53.5t75.5 -20.5t75.5 20.5t44.5 53.5q5 11 21 7t14 -20q-7 -51 -49.5 -86.5t-105.5 -35.5zM448 80q2 -21 11 -32.5t19 -14t18 -6.5t8 -12q0 -21 -64 -21q-36 0 -53 13.5t-20 52.5
q-38 -70 -144 -70q-84 0 -135 40t-51 111q-1 70 50.5 109t132.5 39q80 0 123 -40l-2 27q-9 92 -37 137t-86 45q-35 0 -58 -18t-31.5 -39t-20.5 -39t-28 -18q-18 0 -28.5 10t-10.5 27q0 42 49.5 75.5t127.5 33.5q91 0 145.5 -55.5t64.5 -155.5zM245 22q49 0 80 31.5t29 78.5
l-4 45q-8 36 -37.5 58t-72.5 22q-51 0 -83 -29t-32 -75q0 -56 33.5 -93.5t86.5 -37.5z" />
    <glyph glyph-name="acircumflex.ss01" horiz-adv-x="506" 
d="M98 557q-14 -8 -25.5 3.5t2.5 25.5l110 101q14 13 31 13h18q16 0 30 -13l115 -101q15 -14 5.5 -26.5t-28.5 -2.5l-133 78zM448 80q2 -21 11 -32.5t19 -14t18 -6.5t8 -12q0 -21 -64 -21q-36 0 -53 13.5t-20 52.5q-38 -70 -144 -70q-84 0 -135 40t-51 111q-1 70 50.5 109
t132.5 39q80 0 123 -40l-2 27q-9 92 -37 137t-86 45q-35 0 -58 -18t-31.5 -39t-20.5 -39t-28 -18q-18 0 -28.5 10t-10.5 27q0 42 49.5 75.5t127.5 33.5q91 0 145.5 -55.5t64.5 -155.5zM245 22q49 0 80 31.5t29 78.5l-4 45q-8 36 -37.5 58t-72.5 22q-51 0 -83 -29t-32 -75
q0 -56 33.5 -93.5t86.5 -37.5z" />
    <glyph glyph-name="adieresis.ss01" horiz-adv-x="506" 
d="M134 577q-28 0 -45 16t-17 42t17 42t45 16q27 0 43.5 -16t16.5 -42t-16.5 -42t-43.5 -16zM324 577q-28 0 -44.5 16t-16.5 42t16.5 42t44.5 16q27 0 44 -16t17 -42t-17 -42t-44 -16zM448 80q2 -21 11 -32.5t19 -14t18 -6.5t8 -12q0 -21 -64 -21q-36 0 -53 13.5t-20 52.5
q-38 -70 -144 -70q-84 0 -135 40t-51 111q-1 70 50.5 109t132.5 39q80 0 123 -40l-2 27q-9 92 -37 137t-86 45q-35 0 -58 -18t-31.5 -39t-20.5 -39t-28 -18q-18 0 -28.5 10t-10.5 27q0 42 49.5 75.5t127.5 33.5q91 0 145.5 -55.5t64.5 -155.5zM245 22q49 0 80 31.5t29 78.5
l-4 45q-8 36 -37.5 58t-72.5 22q-51 0 -83 -29t-32 -75q0 -56 33.5 -93.5t86.5 -37.5z" />
    <glyph glyph-name="agrave.ss01" horiz-adv-x="506" 
d="M119 640q-24 8 -14 32l17 32q12 25 36 7l176 -126q13 -11 5 -24t-26 -7zM448 80q2 -21 11 -32.5t19 -14t18 -6.5t8 -12q0 -21 -64 -21q-36 0 -53 13.5t-20 52.5q-38 -70 -144 -70q-84 0 -135 40t-51 111q-1 70 50.5 109t132.5 39q80 0 123 -40l-2 27q-9 92 -37 137
t-86 45q-35 0 -58 -18t-31.5 -39t-20.5 -39t-28 -18q-18 0 -28.5 10t-10.5 27q0 42 49.5 75.5t127.5 33.5q91 0 145.5 -55.5t64.5 -155.5zM245 22q49 0 80 31.5t29 78.5l-4 45q-8 36 -37.5 58t-72.5 22q-51 0 -83 -29t-32 -75q0 -56 33.5 -93.5t86.5 -37.5z" />
    <glyph glyph-name="amacron.ss01" horiz-adv-x="506" 
d="M96 604q-18 0 -18 16v28q0 15 18 15h262q18 0 18 -15v-28q0 -16 -18 -16h-262zM448 80q2 -21 11 -32.5t19 -14t18 -6.5t8 -12q0 -21 -64 -21q-36 0 -53 13.5t-20 52.5q-38 -70 -144 -70q-84 0 -135 40t-51 111q-1 70 50.5 109t132.5 39q80 0 123 -40l-2 27q-9 92 -37 137
t-86 45q-35 0 -58 -18t-31.5 -39t-20.5 -39t-28 -18q-18 0 -28.5 10t-10.5 27q0 42 49.5 75.5t127.5 33.5q91 0 145.5 -55.5t64.5 -155.5zM245 22q49 0 80 31.5t29 78.5l-4 45q-8 36 -37.5 58t-72.5 22q-51 0 -83 -29t-32 -75q0 -56 33.5 -93.5t86.5 -37.5z" />
    <glyph glyph-name="aogonek.ss01" horiz-adv-x="506" 
d="M504 15q0 -19 -54 -21q-55 -60 -55 -108q0 -23 11 -36t28 -13q7 0 27 6q15 6 19 -12q3 -18 -11 -25q-20 -10 -48 -10q-37 0 -64.5 20.5t-27.5 57.5q0 65 81 122q-39 9 -43 64q-38 -70 -144 -70q-84 0 -135 40t-51 111q-1 70 50.5 109t132.5 39q80 0 123 -40l-2 27
q-9 92 -37 137t-86 45q-35 0 -58 -18t-31.5 -39t-20.5 -39t-28 -18q-18 0 -28.5 10t-10.5 27q0 42 49.5 75.5t127.5 33.5q91 0 145.5 -55.5t64.5 -155.5l20 -199q2 -21 11 -32.5t19 -14t18 -6.5t8 -12zM245 22q49 0 80 31.5t29 78.5l-4 45q-8 36 -37.5 58t-72.5 22
q-51 0 -83 -29t-32 -75q0 -56 33.5 -93.5t86.5 -37.5z" />
    <glyph glyph-name="aring.ss01" horiz-adv-x="506" 
d="M227 544q-50 0 -83.5 29t-33.5 71q0 44 33 73t85 29q50 0 83.5 -28.5t33.5 -70.5q0 -45 -32.5 -74t-85.5 -29zM228 713q-27 0 -44 -18.5t-17 -49.5q0 -29 17 -49t44 -20t43.5 19t16.5 50q0 29 -17 48.5t-43 19.5zM448 80q2 -21 11 -32.5t19 -14t18 -6.5t8 -12
q0 -21 -64 -21q-36 0 -53 13.5t-20 52.5q-38 -70 -144 -70q-84 0 -135 40t-51 111q-1 70 50.5 109t132.5 39q80 0 123 -40l-2 27q-9 92 -37 137t-86 45q-35 0 -58 -18t-31.5 -39t-20.5 -39t-28 -18q-18 0 -28.5 10t-10.5 27q0 42 49.5 75.5t127.5 33.5q91 0 145.5 -55.5
t64.5 -155.5zM245 22q49 0 80 31.5t29 78.5l-4 45q-8 36 -37.5 58t-72.5 22q-51 0 -83 -29t-32 -75q0 -56 33.5 -93.5t86.5 -37.5z" />
    <glyph glyph-name="atilde.ss01" horiz-adv-x="506" 
d="M64 596q-13 0 -10 17q8 41 33 68t64 27q34 0 84.5 -28.5t68.5 -28.5q35 0 51 34q5 13 17 13h6q15 0 10 -17q-22 -93 -95 -93q-32 0 -81.5 29t-71.5 29q-34 0 -51 -35q-7 -15 -16 -15h-9zM448 80q2 -21 11 -32.5t19 -14t18 -6.5t8 -12q0 -21 -64 -21q-36 0 -53 13.5
t-20 52.5q-38 -70 -144 -70q-84 0 -135 40t-51 111q-1 70 50.5 109t132.5 39q80 0 123 -40l-2 27q-9 92 -37 137t-86 45q-35 0 -58 -18t-31.5 -39t-20.5 -39t-28 -18q-18 0 -28.5 10t-10.5 27q0 42 49.5 75.5t127.5 33.5q91 0 145.5 -55.5t64.5 -155.5zM245 22q49 0 80 31.5
t29 78.5l-4 45q-8 36 -37.5 58t-72.5 22q-51 0 -83 -29t-32 -75q0 -56 33.5 -93.5t86.5 -37.5z" />
    <glyph glyph-name="e.ss01" horiz-adv-x="495" 
d="M440 141q7 11 19 8.5t10 -16.5q-11 -53 -64 -98t-139 -45q-99 0 -165.5 70t-66.5 184q0 105 68 175.5t168 70.5q85 0 135.5 -45.5t50.5 -102.5q0 -43 -47 -59l-277 -91q17 -65 60.5 -101.5t104.5 -36.5q103 0 143 87zM255 458q-60 0 -97 -52t-37 -130q0 -30 4 -51l223 80
q24 10 24 35q0 38 -34.5 78t-82.5 40z" />
    <glyph glyph-name="eacute.ss01" horiz-adv-x="495" 
d="M164 557q-17 -5 -25 7q-7 12 5 24l177 126q22 17 36 -7l15 -32q6 -10 2 -19t-15 -13zM440 141q7 11 19 8.5t10 -16.5q-11 -53 -64 -98t-139 -45q-99 0 -165.5 70t-66.5 184q0 105 68 175.5t168 70.5q85 0 135.5 -45.5t50.5 -102.5q0 -43 -47 -59l-277 -91
q17 -65 60.5 -101.5t104.5 -36.5q103 0 143 87zM255 458q-60 0 -97 -52t-37 -130q0 -30 4 -51l223 80q24 10 24 35q0 38 -34.5 78t-82.5 40z" />
    <glyph glyph-name="ecaron.ss01" horiz-adv-x="495" 
d="M93 678q-8 7 -4.5 15t12 10.5t17.5 -1.5l131 -87l131 87q8 6 17.5 2t11.5 -11.5t-4 -14.5l-117 -109q-14 -14 -30 -14h-21q-16 0 -30 14zM440 141q7 11 19 8.5t10 -16.5q-11 -53 -64 -98t-139 -45q-99 0 -165.5 70t-66.5 184q0 105 68 175.5t168 70.5q85 0 135.5 -45.5
t50.5 -102.5q0 -43 -47 -59l-277 -91q17 -65 60.5 -101.5t104.5 -36.5q103 0 143 87zM255 458q-60 0 -97 -52t-37 -130q0 -30 4 -51l223 80q24 10 24 35q0 38 -34.5 78t-82.5 40z" />
    <glyph glyph-name="ecircumflex.ss01" horiz-adv-x="495" 
d="M119 557q-14 -8 -25.5 3.5t3.5 25.5l110 101q13 13 30 13h19q14 0 30 -13l115 -101q15 -14 5 -26.5t-29 -2.5l-133 77zM440 141q7 11 19 8.5t10 -16.5q-11 -53 -64 -98t-139 -45q-99 0 -165.5 70t-66.5 184q0 105 68 175.5t168 70.5q85 0 135.5 -45.5t50.5 -102.5
q0 -43 -47 -59l-277 -91q17 -65 60.5 -101.5t104.5 -36.5q103 0 143 87zM255 458q-60 0 -97 -52t-37 -130q0 -30 4 -51l223 80q24 10 24 35q0 38 -34.5 78t-82.5 40z" />
    <glyph glyph-name="edieresis.ss01" horiz-adv-x="495" 
d="M155 577q-28 0 -45.5 16t-17.5 42t17.5 42t45.5 16q27 0 43.5 -16t16.5 -42t-16.5 -42t-43.5 -16zM345 577q-28 0 -44.5 16t-16.5 42t16.5 42t44.5 16q27 0 44 -16t17 -42t-17 -42t-44 -16zM440 141q7 11 19 8.5t10 -16.5q-11 -53 -64 -98t-139 -45q-99 0 -165.5 70
t-66.5 184q0 105 68 175.5t168 70.5q85 0 135.5 -45.5t50.5 -102.5q0 -43 -47 -59l-277 -91q17 -65 60.5 -101.5t104.5 -36.5q103 0 143 87zM255 458q-60 0 -97 -52t-37 -130q0 -30 4 -51l223 80q24 10 24 35q0 38 -34.5 78t-82.5 40z" />
    <glyph glyph-name="edotaccent.ss01" horiz-adv-x="495" 
d="M249 575q-31 0 -49.5 17t-18.5 45t18.5 45.5t49.5 17.5q29 0 47 -17.5t18 -45.5t-18 -45t-47 -17zM440 141q7 11 19 8.5t10 -16.5q-11 -53 -64 -98t-139 -45q-99 0 -165.5 70t-66.5 184q0 105 68 175.5t168 70.5q85 0 135.5 -45.5t50.5 -102.5q0 -43 -47 -59l-277 -91
q17 -65 60.5 -101.5t104.5 -36.5q103 0 143 87zM255 458q-60 0 -97 -52t-37 -130q0 -30 4 -51l223 80q24 10 24 35q0 38 -34.5 78t-82.5 40z" />
    <glyph glyph-name="egrave.ss01" horiz-adv-x="495" 
d="M141 640q-26 8 -14 32l16 32q13 24 36 7l176 -126q13 -11 6 -24q-8 -13 -26 -7zM440 141q7 11 19 8.5t10 -16.5q-11 -53 -64 -98t-139 -45q-99 0 -165.5 70t-66.5 184q0 105 68 175.5t168 70.5q85 0 135.5 -45.5t50.5 -102.5q0 -43 -47 -59l-277 -91q17 -65 60.5 -101.5
t104.5 -36.5q103 0 143 87zM255 458q-60 0 -97 -52t-37 -130q0 -30 4 -51l223 80q24 10 24 35q0 38 -34.5 78t-82.5 40z" />
    <glyph glyph-name="emacron.ss01" horiz-adv-x="495" 
d="M117 604q-18 0 -18 16v28q0 15 18 15h262q18 0 18 -15v-28q0 -16 -18 -16h-262zM440 141q7 11 19 8.5t10 -16.5q-11 -53 -64 -98t-139 -45q-99 0 -165.5 70t-66.5 184q0 105 68 175.5t168 70.5q85 0 135.5 -45.5t50.5 -102.5q0 -43 -47 -59l-277 -91q17 -65 60.5 -101.5
t104.5 -36.5q103 0 143 87zM255 458q-60 0 -97 -52t-37 -130q0 -30 4 -51l223 80q24 10 24 35q0 38 -34.5 78t-82.5 40z" />
    <glyph glyph-name="eogonek.ss01" horiz-adv-x="495" 
d="M440 141q7 11 19 8.5t10 -16.5q-7 -32 -31.5 -65t-63.5 -53q-67 -67 -67 -120q0 -23 11 -36t28 -13q13 0 28 6t18 -12t-11 -25q-16 -10 -48 -10q-37 0 -64.5 20.5t-27.5 57.5q0 56 66 110q-19 -3 -41 -3q-99 0 -165.5 70t-66.5 184q0 105 68 175.5t168 70.5
q85 0 135.5 -45.5t50.5 -102.5q0 -43 -47 -59l-277 -91q17 -65 60.5 -101.5t104.5 -36.5q103 0 143 87zM255 458q-60 0 -97 -52t-37 -130q0 -30 4 -51l223 80q24 10 24 35q0 38 -34.5 78t-82.5 40z" />
    <glyph glyph-name="g.ss01" horiz-adv-x="531" 
d="M464 480q35 0 34 -16q-1 -5 -6 -9q-8 -8 -21 -12t-32 -6t-29 -5q32 -24 51 -61.5t19 -76.5q0 -62 -32 -109t-88 -71q64 -14 97 -47.5t33 -78.5q0 -69 -64.5 -109.5t-167.5 -40.5q-106 0 -167 48.5t-61 103.5q0 16 9.5 27t27.5 11q14 0 24.5 -11.5t17 -29t18 -38t26 -38
t43.5 -29.5t68 -12q61 0 99 31t38 81q0 48 -30 78.5t-81 35.5q-26 -2 -38 -2q-90 0 -152 56.5t-62 137.5q0 89 61 145.5t160 56.5q27 0 81 -5t124 -5zM268 127q57 0 91 38.5t34 97.5q0 80 -42.5 137.5t-107.5 57.5q-53 0 -85.5 -38t-32.5 -96q0 -81 41.5 -139t101.5 -58z
" />
    <glyph glyph-name="gbreve.ss01" horiz-adv-x="531" 
d="M261 559q-61 0 -103.5 35.5t-50.5 86.5q-1 11 6.5 17t16.5 5t12 -8q11 -34 44 -54.5t75 -20.5q43 0 76.5 20.5t43.5 54.5q3 7 12.5 8t16.5 -5t6 -17q-7 -51 -49.5 -86.5t-105.5 -35.5zM464 480q35 0 34 -16q-1 -5 -6 -9q-8 -8 -21 -12t-32 -6t-29 -5q32 -24 51 -61.5
t19 -76.5q0 -62 -32 -109t-88 -71q64 -14 97 -47.5t33 -78.5q0 -69 -64.5 -109.5t-167.5 -40.5q-106 0 -167 48.5t-61 103.5q0 16 9.5 27t27.5 11q14 0 24.5 -11.5t17 -29t18 -38t26 -38t43.5 -29.5t68 -12q61 0 99 31t38 81q0 48 -30 78.5t-81 35.5q-26 -2 -38 -2
q-90 0 -152 56.5t-62 137.5q0 89 61 145.5t160 56.5q27 0 81 -5t124 -5zM268 127q57 0 91 38.5t34 97.5q0 80 -42.5 137.5t-107.5 57.5q-53 0 -85.5 -38t-32.5 -96q0 -81 41.5 -139t101.5 -58z" />
    <glyph glyph-name="uni0123.ss01" horiz-adv-x="531" 
d="M251 565q-26 0 -43.5 19.5t-17.5 52.5q0 103 99 170q11 7 19.5 -2t-1.5 -19q-44 -41 -54 -86q-3 -14 9 -14q20 0 34 -16.5t14 -41.5q0 -27 -16 -45t-43 -18zM464 480q35 0 34 -16q-1 -5 -6 -9q-8 -8 -21 -12t-32 -6t-29 -5q32 -24 51 -61.5t19 -76.5q0 -62 -32 -109
t-88 -71q64 -14 97 -47.5t33 -78.5q0 -69 -64.5 -109.5t-167.5 -40.5q-106 0 -167 48.5t-61 103.5q0 16 9.5 27t27.5 11q14 0 24.5 -11.5t17 -29t18 -38t26 -38t43.5 -29.5t68 -12q61 0 99 31t38 81q0 48 -30 78.5t-81 35.5q-26 -2 -38 -2q-90 0 -152 56.5t-62 137.5
q0 89 61 145.5t160 56.5q27 0 81 -5t124 -5zM268 127q57 0 91 38.5t34 97.5q0 80 -42.5 137.5t-107.5 57.5q-53 0 -85.5 -38t-32.5 -96q0 -81 41.5 -139t101.5 -58z" />
    <glyph glyph-name="gdotaccent.ss01" horiz-adv-x="531" 
d="M262 568q-30 0 -48.5 17.5t-18.5 45.5q0 27 18.5 44.5t48.5 17.5t47.5 -17.5t17.5 -44.5q0 -29 -17.5 -46t-47.5 -17zM464 480q35 0 34 -16q-1 -5 -6 -9q-8 -8 -21 -12t-32 -6t-29 -5q32 -24 51 -61.5t19 -76.5q0 -62 -32 -109t-88 -71q64 -14 97 -47.5t33 -78.5
q0 -69 -64.5 -109.5t-167.5 -40.5q-106 0 -167 48.5t-61 103.5q0 16 9.5 27t27.5 11q14 0 24.5 -11.5t17 -29t18 -38t26 -38t43.5 -29.5t68 -12q61 0 99 31t38 81q0 48 -30 78.5t-81 35.5q-26 -2 -38 -2q-90 0 -152 56.5t-62 137.5q0 89 61 145.5t160 56.5q27 0 81 -5
t124 -5zM268 127q57 0 91 38.5t34 97.5q0 80 -42.5 137.5t-107.5 57.5q-53 0 -85.5 -38t-32.5 -96q0 -81 41.5 -139t101.5 -58z" />
    <glyph glyph-name="k.ss01" horiz-adv-x="521" 
d="M483 57q8 -10 29 -21.5t21 -21.5v-2q0 -12 -15 -12h-133q-15 0 -15 12v2q0 7 14.5 18.5t3.5 24.5l-152 191l-76 -70v-108q0 -19 19.5 -32.5t19.5 -21.5v-3q0 -13 -21 -13h-122q-20 0 -20 13v3q0 8 18 21.5t18 32.5v562q0 17 -10 28.5t-19.5 18.5t-9.5 13v2q0 8 14 16
l81 38q15 6 23.5 1.5t8.5 -15.5v-502l202 178q11 14 6 20.5t-16.5 17t-11.5 17.5v3q0 12 16 12h113q14 0 14 -11v-3q0 -8 -10 -15.5t-29 -18.5t-31 -21l-119 -110z" />
    <glyph glyph-name="uni0137.ss01" horiz-adv-x="523" 
d="M483 57q8 -10 29 -21.5t21 -21.5v-2q0 -12 -15 -12h-133q-15 0 -15 12v2q0 7 14.5 18.5t3.5 24.5l-152 191l-76 -70v-108q0 -19 19.5 -32.5t19.5 -21.5v-3q0 -13 -21 -13h-122q-20 0 -20 13v3q0 8 18 21.5t18 32.5v562q0 17 -10 28.5t-19.5 18.5t-9.5 13v2q0 8 14 16
l81 38q15 6 23.5 1.5t8.5 -15.5v-502l202 178q11 14 6 20.5t-16.5 17t-11.5 17.5v3q0 12 16 12h113q14 0 14 -11v-3q0 -8 -10 -15.5t-29 -18.5t-31 -21l-119 -110zM270 -60q26 0 43.5 -19t17.5 -51q0 -99 -98 -167q-10 -7 -19 2t1 18q44 42 53 85q4 14 -8 14q-21 0 -34.5 16
t-13.5 41q0 27 16 44t42 17z" />
    <glyph glyph-name="kgreenlandic.ss01" horiz-adv-x="528" 
d="M493 57q9 -11 28 -22t19 -21v-2q0 -12 -15 -12h-129q-16 0 -16 12v2q0 7 14.5 18.5t4.5 24.5l-155 191l-76 -69v-109q0 -19 19.5 -32.5t19.5 -21.5v-3q0 -13 -21 -13h-124q-21 0 -21 13v3q0 8 18.5 21.5t18.5 32.5v398q0 22 -20 38t-20 21v3q0 9 15 15l82 38q15 7 24 2.5
t9 -15.5v-338l201 178q11 14 6 20.5t-16.5 17t-11.5 17.5v3q0 12 16 12h113q15 0 15 -11v-3q0 -8 -10 -15.5t-29 -18.5t-31 -21l-119 -110z" />
    <glyph glyph-name="v.ss01" horiz-adv-x="516" 
d="M502 480q15 0 15 -11v-3q0 -9 -22 -24t-29 -32l-158 -390q-8 -20 -26 -20h-31q-18 0 -27 20l-179 390q-8 17 -25.5 32t-17.5 24v3q0 11 15 11h139q14 0 14 -12v-3q0 -4 -17 -20.5t-10 -35.5l141 -346l137 337q6 16 1.5 27t-12.5 16t-16 10.5t-8 11.5v3q0 12 15 12h101z
" />
    <glyph glyph-name="w.ss01" horiz-adv-x="743" 
d="M728 480q14 0 14 -12v-3q0 -8 -18.5 -21.5t-26.5 -34.5l-140 -389q-7 -20 -25 -20h-19q-21 0 -27 20l-113 354l-114 -354q-6 -20 -25 -20h-13q-19 0 -27 20l-154 389q-8 20 -23.5 34t-15.5 22v3q0 12 15 12h126q14 0 14 -12v-3q0 -7 -10 -13t-17 -16t-1 -28l114 -318
l118 372q4 16 17 16l33 1q12 0 17 -16l115 -377l111 316q7 20 -2 31t-21.5 18t-12.5 14v3q0 12 15 12h96z" />
    <glyph glyph-name="wacute.ss01" horiz-adv-x="743" 
d="M303 555q-18 -6 -26 7q-7 12 5 24l177 126q23 18 36 -7l16 -32q12 -23 -14 -32zM728 480q14 0 14 -12v-3q0 -8 -18.5 -21.5t-26.5 -34.5l-140 -389q-7 -20 -25 -20h-19q-21 0 -27 20l-113 354l-114 -354q-6 -20 -25 -20h-13q-19 0 -27 20l-154 389q-8 20 -23.5 34
t-15.5 22v3q0 12 15 12h126q14 0 14 -12v-3q0 -7 -10 -13t-17 -16t-1 -28l114 -318l118 372q4 16 17 16l33 1q12 0 17 -16l115 -377l111 316q7 20 -2 31t-21.5 18t-12.5 14v3q0 12 15 12h96z" />
    <glyph glyph-name="wcircumflex.ss01" horiz-adv-x="743" 
d="M257 555q-14 -8 -25.5 3.5t2.5 25.5l110 100q14 14 31 14h18q16 0 31 -14l114 -100q15 -14 5.5 -26.5t-28.5 -2.5l-133 78zM728 480q14 0 14 -12v-3q0 -8 -18.5 -21.5t-26.5 -34.5l-140 -389q-7 -20 -25 -20h-19q-21 0 -27 20l-113 354l-114 -354q-6 -20 -25 -20h-13
q-19 0 -27 20l-154 389q-8 20 -23.5 34t-15.5 22v3q0 12 15 12h126q14 0 14 -12v-3q0 -7 -10 -13t-17 -16t-1 -28l114 -318l118 372q4 16 17 16l33 1q12 0 17 -16l115 -377l111 316q7 20 -2 31t-21.5 18t-12.5 14v3q0 12 15 12h96z" />
    <glyph glyph-name="wdieresis.ss01" horiz-adv-x="743" 
d="M293 575q-28 0 -45 16t-17 42t17 42t45 16q27 0 43.5 -16t16.5 -42t-16.5 -42t-43.5 -16zM483 575q-28 0 -44.5 16t-16.5 42t16.5 42t44.5 16q27 0 44 -16t17 -42t-17 -42t-44 -16zM728 480q14 0 14 -12v-3q0 -8 -18.5 -21.5t-26.5 -34.5l-140 -389q-7 -20 -25 -20h-19
q-21 0 -27 20l-113 354l-114 -354q-6 -20 -25 -20h-13q-19 0 -27 20l-154 389q-8 20 -23.5 34t-15.5 22v3q0 12 15 12h126q14 0 14 -12v-3q0 -7 -10 -13t-17 -16t-1 -28l114 -318l118 372q4 16 17 16l33 1q12 0 17 -16l115 -377l111 316q7 20 -2 31t-21.5 18t-12.5 14v3
q0 12 15 12h96z" />
    <glyph glyph-name="wgrave.ss01" horiz-adv-x="743" 
d="M278 638q-25 8 -14 31l17 33q13 24 36 7l176 -126q13 -11 5 -25q-8 -12 -25 -6zM728 480q14 0 14 -12v-3q0 -8 -18.5 -21.5t-26.5 -34.5l-140 -389q-7 -20 -25 -20h-19q-21 0 -27 20l-113 354l-114 -354q-6 -20 -25 -20h-13q-19 0 -27 20l-154 389q-8 20 -23.5 34
t-15.5 22v3q0 12 15 12h126q14 0 14 -12v-3q0 -7 -10 -13t-17 -16t-1 -28l114 -318l118 372q4 16 17 16l33 1q12 0 17 -16l115 -377l111 316q7 20 -2 31t-21.5 18t-12.5 14v3q0 12 15 12h96z" />
    <glyph glyph-name="y.ss01" horiz-adv-x="522" 
d="M507 480q14 0 14 -12v-3q0 -9 -17.5 -24t-27.5 -38l-189 -417q-17 -39 -25 -55.5t-27.5 -50.5t-35.5 -49.5t-41.5 -29t-53.5 -13.5q-53 0 -88 28.5t-35 60.5q0 18 10 29t28 11q17 0 29 -14.5t17.5 -32.5t19 -32.5t34.5 -14.5q59 0 122 158l-192 423q-11 22 -29.5 37
t-18.5 24v3q0 12 15 12h130q14 0 14 -12v-3q0 -7 -8.5 -15.5t-12.5 -16t4 -30.5l144 -339l143 331q8 18 3 29.5t-14 17t-18 11.5t-9 12v3q0 12 15 12h100z" />
    </font>
</defs>
</svg>
